↑↓torrent.by
Поиск
Логин:  Регистрация
Пароль:

Битва в проливе Норян / Noryang: jukeumui bada / Noryang: Deadly Sea (2023) WEB-DLRip-AVC от DoMiNo & селезень | D

download Скачать торрент-файл   magnet Магнитная ссылка Размер: 3.00 GB Раздают: 0 Качают: 3 Добавлен: 2024-05-03 05:00
Пиры будут получены из сети DHT
Последний сидер был замечен 2024-05-16 18:26
Информация о фильме Название: Битва в проливе Норян Оригинальное название: Noryang: jukeumui bada / Noryang: Deadly Sea Год выхода: 2023 Жанр: военный, биография, боевик, история Режиссер: Ким Хан-мин / Kim Han-min В ролях: Ким Юн-сок, Чон Джэ-ён, Пэк Юн-щик, Хо Джун-хо, Лим Иль-гю, Чон Ун-джон, Ли Му-сэн, Чу Сок-тхэ, Ким Джун-хи, Ан Сон-бон О фильме: История о морской битве в проливе Норян 16 декабря 1598 года, последней битвы Имджинской войны. Корейский флот из 150 кораблей под предводительством адмирала Ли Сунсина противостоит 500 судам японских агрессоров. Страна: Корея Южная Студия: Acemaker Movie Works, Big Stone Pictures, Lotte Entertainment Продолжительность: 02:32:50 Перевод: Профессиональный (дублированный) | Кипарис Субтитры: Русские (Forced), французские (Forced, Full) Файл Формат: Matroska Качество: WEB-DLRip-AVC Видео: 1024x424 at 24.000 fps, x264@L4.1, ~2422 kbps Аудио: AC3, 6 ch, ~384 kbps - | Русский | Формат субтитров: softsub (SRT) ***Рип от: -=DoMiNo=-
[+] M/IGeneral Unique ID : 187989220421665402267484026593990278025 (0x8D6D68297F7F53B4CC949EC85A2DFB89) Complete name : S:Noryang.Deadly.Sea.2023.DUB.WEB-DLRip.x264.seleZen.mkv Format : Matroska Format version : Version 4 File size : 3.00 GiB Duration : 2 h 32 min Overall bit rate : 2 807 kb/s Frame rate : 24.000 FPS Movie name : Noryang.Deadly.Sea.2023.DUB.WEB-DLRip.x264.seleZen Encoded date : 2024-05-02 19:22:01 UTC Writing application : mkvmerge v84.0 ('Sleeper') 64-bit Writing library : libebml v1.4.5 + libmatroska v1.7.1 Cover : Yes Attachments : cover.jpg / small_cover.jpg Video ID : 1 Format : AVC Format/Info : Advanced Video Codec Format profile : High@L4.1 Format settings : CABAC / 10 Ref Frames Format settings, CABAC : Yes Format settings, Reference : 10 frames Codec ID : V_MPEG4/ISO/AVC Duration : 2 h 32 min Bit rate : 2 422 kb/s Width : 1 024 pixels Height : 424 pixels Display aspect ratio : 2.40:1 Frame rate mode : Constant Frame rate : 24.000 FPS Color space : YUV Chroma subsampling : 4:2:0 Bit depth : 8 bits Scan type : Progressive Bits/(Pixel*Frame) : 0.232 Stream size : 2.59 GiB (86%) Title : -=DoMiNo=- Writing library : x264 core 164 r3190 -DoMiNo Encoding settings : cabac=1 / ref=10 / deblock=1:-2:-1 / analyse=0x3:0x133 / me=umh / subme=10 / psy=1 / psy_rd=1.01:0.03 / mixed_ref=1 / me_range=32 / chroma_me=1 / trellis=2 / 8x8dct=1 / cqm=0 / deadzone=21,11 / fast_pskip=0 / chroma_qp_offset=-3 / threads=13 / lookahead_threads=3 / sliced_threads=0 / nr=0 / decimate=1 / interlaced=0 / bluray_compat=0 / constrained_intra=0 / bframes=10 / b_pyramid=2 / b_adapt=2 / b_bias=0 / direct=3 / weightb=1 / open_gop=0 / weightp=2 / keyint=240 / keyint_min=24 / scenecut=40 / intra_refresh=0 / rc_lookahead=60 / rc=crf / mbtree=0 / crf=19.3 / qcomp=0.60 / qpmin=0 / qpmax=69 / qpstep=4 / vbv_maxrate=50000 / vbv_bufsize=62500 / crf_max=0.0 / nal_hrd=none / filler=0 / ip_ratio=1.36 / pb_ratio=1.30 / aq=3:0.80 Language : English Default : Yes Forced : No Color range : Limited Color primaries : BT.709 Transfer characteristics : BT.709 Matrix coefficients : BT.709 Audio ID : 2 Format : AC-3 Format/Info : Audio Coding 3 Commercial name : Dolby Digital Codec ID : A_AC3 Duration : 2 h 32 min Bit rate mode : Constant Bit rate : 384 kb/s Channel(s) : 6 channels Channel layout : L R C LFE Ls Rs Sampling rate : 48.0 kHz Frame rate : 31.250 FPS (1536 SPF) Compression mode : Lossy Stream size : 419 MiB (14%) Title : Dub -Кипарис Language : Russian Service kind : Complete Main Default : Yes Forced : No AC3_metadata cmixlev : -3.0 dB surmixlev : -3 dB Text #1 ID : 3 Format : UTF-8 Codec ID : S_TEXT/UTF8 Codec ID/Info : UTF-8 Plain Text Duration : 2 h 28 min Bit rate : 1 b/s Frame rate : 0.004 FPS Count of elements : 38 Stream size : 1.74 KiB (0%) Title : Forced Language : Russian Default : No Forced : No Text #2 ID : 4 Format : UTF-8 Codec ID : S_TEXT/UTF8 Codec ID/Info : UTF-8 Plain Text Duration : 2 h 28 min Bit rate : 2 b/s Frame rate : 0.008 FPS Count of elements : 74 Stream size : 2.33 KiB (0%) Title : Forced Language : French (FR) Default : No Forced : No Text #3 ID : 5 Format : UTF-8 Codec ID : S_TEXT/UTF8 Codec ID/Info : UTF-8 Plain Text Duration : 2 h 30 min Bit rate : 31 b/s Frame rate : 0.140 FPS Count of elements : 1269 Stream size : 34.5 KiB (0%) Title : Full Language : French (FR) Default : No Forced : No Menu 00:00:00.000 : en:Chapter 01 00:05:50.000 : en:Chapter 02 00:11:40.000 : en:Chapter 03 00:17:30.000 : en:Chapter 04 00:23:20.000 : en:Chapter 05 00:29:10.000 : en:Chapter 06 00:35:00.000 : en:Chapter 07 00:40:50.000 : en:Chapter 08 00:46:40.000 : en:Chapter 09 00:52:30.000 : en:Chapter 10 00:58:20.000 : en:Chapter 11 01:04:10.000 : en:Chapter 12 01:10:00.000 : en:Chapter 13 01:15:50.000 : en:Chapter 14 01:21:40.000 : en:Chapter 15 01:27:30.000 : en:Chapter 16 01:33:20.000 : en:Chapter 17 01:39:10.000 : en:Chapter 18 01:45:00.000 : en:Chapter 19 01:50:50.000 : en:Chapter 20 01:56:40.000 : en:Chapter 21 02:02:30.000 : en:Chapter 22 02:08:20.000 : en:Chapter 23 02:14:10.000 : en:Chapter 24 02:20:00.000 : en:Chapter 25 02:25:50.000 : en:Chapter 26 02:31:40.000 : en:Chapter 27
Релиз: Присоединяйся к: Кликай на баннеры.
НЕ ПРОПУСТИТЕ СЦЕНУ ПОСЛЕ ФИНАЛЬНЫХ ТИТРОВ И НЕ ЗАБУДЬТЕ ВКЛЮЧИТЬ РУССКИЕ ФОРСИРОВАННЫЕ СУБТИТРЫ НА НАДПИСИ

Всего файлов в раздаче: 1 
Noryang.Deadly.Sea.2023.DUB.WEB-DLRip.x264.seleZen.mkv3.00 GB

Похожие раздачи по запросу - Битва
2024-05-22 magnet Битва в проливе Норян / Noryang: jukeumui bada / Noryang: Deadly Sea (2023) BDRip от MegaPeer | D 1.46 GB ↑ 0 ↓ 0
2024-05-22 magnet Битва в проливе Норян / Noryang: jukeumui bada / Noryang: Deadly Sea (2023) BDRip 1080p от MegaPeer | D 13.12 GB ↑ 1 ↓ 3
2024-05-20 magnet Новая Битва экстрасенсов [24х01-09] (2024) WEBRip 1080p от Files-x 25.89 GB ↑ 0 ↓ 1
2024-05-20 magnet Новая Битва экстрасенсов [24х01-09] (2024) WEBRip от Files-x 11.15 GB ↑ 0 ↓ 0
2024-05-19 magnet Новая Битва экстрасенсов [24х01-09] (2024) WEBRip 720p от Files-x 11.45 GB ↑ 0 ↓ 0
2024-05-17 magnet Битва в проливе Норян / Noryang: jukeumui bada / Noryang: Deadly Sea (2023) BDRip от New-Team | D 2.18 GB ↑ 0 ↓ 0
2024-05-14 magnet Новая Битва экстрасенсов [24х01-08] (2024) WEBRip 1080p от Files-x 22.98 GB ↑ 0 ↓ 0

Кто качает (только для создателя раздачи и модераторов):
ПользовательIP:портОтдалПринялОстатокСидируетТоррент клиентОбновился
1 Аноним 72.188.212.176:46657 2.00 MB 1016.84 MB 2.92 GB нет -qB4390- 12:59 2024-05-24
2 Аноним 167.145.167.5:38853 0.00 B 137.95 MB 2.92 GB нет -qB4390- 12:50 2024-05-24
3 Аноним 95.26.164.175:8621 1.92 MB 49.73 MB 2.96 GB нет R30----- 12:56 2024-05-24

Комментарии


Зарегистрируйтесь чтобы добавить комментарий
Торрент клиент
byTorrent - программа для загрузки торрент-файлов.

Скачать byTorrent.exe (1,5 МБ)

Скачать byTorrent.zip (0,6 МБ)

Поддержи torrent.by
российских рублей
(300 российских рублей это 4$)

Обратная связь rss

End game ©