↑↓torrent.by
Поиск
Логин:  Регистрация
Пароль:

Годзилла: Минус один / Gojira -1.0 / Godzilla: Minus One (2023) BDRip 720p от DoMiNo & селезень | Sub

download Скачать торрент-файл   magnet Магнитная ссылка Размер: 3.90 GB Добавлен: 2024-05-03 05:00
Пиры будут получены из сети DHT
Последний сидер был замечен 2024-05-09 12:12
Информация о фильме Название: Годзилла: Минус один Оригинальное название: Gojira -1.0 / Godzilla: Minus One Год выпуска: 2023 Жанр: Фантастика, боевик, драма Режиссер: Такаси Ямадзаки / Takashi Yamazaki В ролях: Минами Хамабэ, Рюноскэ Камики, Сакура Андо, Кураносукэ Сасаки, Мунэтака Аоки, Юки Ямада, Хидэтака Ёсиока, Майкл Ариас, Юя Эндо, Кисукэ Иида О фильме: Действие фильма происходит в 1945 году. Япония, которая уже опустошена войной, сталкивается с новой угрозой в виде Годзиллы, в результате чего существование страны оказывается под угрозой. Кайдзю вновь проявляет свою ужасающую и разрушающую силу. Выстоит ли Япония? Выпущено: Япония / Robot Communications, Toho Company, Toho Studios Продолжительность: 02:04:38 Перевод: Субтитры Субтитры: Русские (Full (от rusubmaker)), английские, японские Файл Формат: Matroska Качество: BDRip 720p Видео: 1280x536 at 23.976 fps, x264@L4.1, ~3840 kbps Аудио: AC3, 6 ch, ~640 kbps - | Японский | Формат субтитров: softsub (SRT) ***Рип от: -=DoMiNo=-
[+] M/Ix264 : frame I:1191 Avg QP:14.91 size: 78436 x264 : frame P:37346 Avg QP:15.09 size: 41695 x264 : frame B:140760 Avg QP:17.31 size: 13772 General Unique ID : 330083934825170445031439126669491421414 (0xF853DA7A0066271846EA35AE6DABC0E6) Complete name : T:Godzilla.Minus.One.2023.SUB.BDRip.720p.x264.seleZen.mkv Format : Matroska Format version : Version 4 File size : 3.90 GiB Duration : 2 h 4 min Overall bit rate : 4 482 kb/s Frame rate : 23.976 FPS Movie name : Godzilla.Minus.One.2023.SUB.BDRip.720p.x264.seleZen Encoded date : 2024-05-02 12:06:04 UTC Writing application : mkvmerge v84.0 ('Sleeper') 64-bit Writing library : libebml v1.4.5 + libmatroska v1.7.1 Cover : Yes Attachments : cover.jpg / small_cover.jpg Video ID : 1 Format : AVC Format/Info : Advanced Video Codec Format profile : High@L4.1 Format settings : CABAC / 12 Ref Frames Format settings, CABAC : Yes Format settings, Reference : 12 frames Codec ID : V_MPEG4/ISO/AVC Duration : 2 h 4 min Bit rate : 3 840 kb/s Width : 1 280 pixels Height : 536 pixels Display aspect ratio : 2.39:1 Frame rate mode : Constant Frame rate : 23.976 (24000/1001) FPS Color space : YUV Chroma subsampling : 4:2:0 Bit depth : 8 bits Scan type : Progressive Bits/(Pixel*Frame) : 0.233 Stream size : 3.34 GiB (86%) Title : -=DoMiNo=- Writing library : x264 core 164 r3190 -DoMiNo Encoding settings : cabac=1 / ref=12 / deblock=1:-2:-2 / analyse=0x3:0x133 / me=umh / subme=10 / psy=1 / psy_rd=1.00:0.00 / mixed_ref=1 / me_range=32 / chroma_me=1 / trellis=2 / 8x8dct=1 / cqm=0 / deadzone=21,11 / fast_pskip=0 / chroma_qp_offset=-2 / threads=17 / lookahead_threads=4 / sliced_threads=0 / nr=0 / decimate=1 / interlaced=0 / bluray_compat=0 / constrained_intra=0 / bframes=12 / b_pyramid=2 / b_adapt=2 / b_bias=0 / direct=3 / weightb=1 / open_gop=0 / weightp=2 / keyint=240 / keyint_min=23 / scenecut=40 / intra_refresh=0 / rc_lookahead=60 / rc=crf / mbtree=0 / crf=16.0 / qcomp=0.60 / qpmin=0 / qpmax=69 / qpstep=4 / vbv_maxrate=50000 / vbv_bufsize=62500 / crf_max=0.0 / nal_hrd=none / filler=0 / ip_ratio=1.20 / pb_ratio=1.30 / aq=3:0.80 Language : Japanese Default : Yes Forced : No Color range : Limited Color primaries : BT.709 Transfer characteristics : BT.709 Matrix coefficients : BT.709 Audio ID : 2 Format : AC-3 Format/Info : Audio Coding 3 Commercial name : Dolby Digital Codec ID : A_AC3 Duration : 2 h 4 min Bit rate mode : Constant Bit rate : 640 kb/s Channel(s) : 6 channels Channel layout : L R C LFE Ls Rs Sampling rate : 48.0 kHz Frame rate : 31.250 FPS (1536 SPF) Compression mode : Lossy Stream size : 571 MiB (14%) Title : Original Language : Japanese Service kind : Complete Main Default : Yes Forced : No AC3_metadata cmixlev : -4.5 dB surmixlev : -6 dB Text #1 ID : 3 Format : UTF-8 Codec ID : S_TEXT/UTF8 Codec ID/Info : UTF-8 Plain Text Duration : 1 h 56 min Bit rate : 66 b/s Frame rate : 0.161 FPS Count of elements : 1128 Stream size : 57.2 KiB (0%) Title : rusubmaker Language : Russian Default : No Forced : No Text #2 ID : 4 Format : UTF-8 Codec ID : S_TEXT/UTF8 Codec ID/Info : UTF-8 Plain Text Duration : 1 h 56 min Bit rate : 35 b/s Frame rate : 0.171 FPS Count of elements : 1196 Stream size : 30.5 KiB (0%) Language : English Default : No Forced : No Text #3 ID : 5 Format : UTF-8 Codec ID : S_TEXT/UTF8 Codec ID/Info : UTF-8 Plain Text Duration : 2 h 3 min Bit rate : 379 b/s Frame rate : 0.901 FPS Count of elements : 6668 Stream size : 343 KiB (0%) Language : Japanese Default : No Forced : No Menu 00:00:00.000 : Глава 1 00:13:21.509 : Глава 2 00:20:07.664 : Глава 3 00:30:31.579 : Глава 4 00:44:53.565 : Глава 5 00:52:28.019 : Глава 6 01:05:42.271 : Глава 7 01:14:52.279 : Глава 8 01:17:59.716 : Глава 9 01:25:42.011 : Глава 10 01:36:21.025 : Глава 11 01:58:58.798 : Глава 12 02:04:50.191 : Глава 13
Релиз: Присоединяйся к: Кликай на баннеры.

Всего файлов в раздаче: 1 
Godzilla.Minus.One.2023.SUB.BDRip.720p.x264.seleZen.mkv3.90 GB

Похожие раздачи по запросу - Годзилла
2024-05-19 magnet Годзилла: Минус один / Gojira -1.0 / Godzilla: Minus One (2023) UHD BDRemux 2160p | 4K | HDR10 | Dolby Vision Profile 7 | P, P2, L 87.71 GB ↑ 0 ↓ 1
2024-05-19 magnet Годзилла и Конг: Новая империя / Godzilla x Kong: The New Empire (2024) UHD WEB-DL-HEVC 2160p | 4K | Dolby Vision TV | D, P 21.05 GB ↑ 0 ↓ 8
2024-05-18 magnet Годзилла и Конг: Новая империя / Ґодзілла та Конґ: Нова імперія / Godzilla x Kong: The New Empire (2024) WEB-DL-HEVC 2160p | 4K | SDR | D | UKR 12.70 GB ↑ 0 ↓ 2
2024-05-18 magnet Годзилла и Конг: Новая империя / Godzilla x Kong: The New Empire (2024) UHD WEB-DL-HEVC 2160p | 4K | HDR | Dolby Vision Profile 8 | D, P 21.08 GB ↑ 0 ↓ 5
2024-05-16 magnet Годзилла и Конг: Новая империя / Ґодзілла та Конґ: Нова імперія / Godzilla x Kong: The New Empire (2024) WEB-DL-HEVC 2160p | 4K | HDR | D | UKR 16.69 GB ↑ 0 ↓ 2
2024-05-16 magnet Годзилла и Конг: Новая империя / Godzilla x Kong: The New Empire (2024) WEB-DL 1080p от Jaskier | P 8.11 GB ↑ 0 ↓ 1
2024-05-16 magnet Годзилла и Конг: Новая империя / Ґодзілла та Конґ: Нова імперія / Godzilla x Kong: The New Empire (2024) WEB-DL 1080p | D | UKR 8.47 GB ↑ 1 ↓ 1

Комментарии


Зарегистрируйтесь чтобы добавить комментарий
Торрент клиент
byTorrent - программа для загрузки торрент-файлов.

Скачать byTorrent.exe (1,5 МБ)

Скачать byTorrent.zip (0,6 МБ)

Поддержи torrent.by
российских рублей
(300 российских рублей это 4$)

Обратная связь rss

End game ©