↑↓torrent.by
Поиск
Логин:  Регистрация
Пароль:

Судная ночь в Аркадии / Arcadian (2024) WEB-DLRip 720p от DoMiNo | D | TS

download Скачать торрент-файл   magnet Магнитная ссылка Размер: 2.36 GB Добавлен: 2024-05-03 05:00
Пиры будут получены из сети DHT
Последний сидер был замечен 2024-05-19 20:54
Информация о фильме Название: Судная ночь в Аркадии Оригинальное название: Arcadian Год выпуска: 2024 Жанр: Ужасы, боевик, триллер Режиссер: Бенжамин Брюэр / Benjamin Brewer В ролях: Николас Кейдж, Джейден Мартелл, Макс Дженкинс, Сэди Совералл, Саманта Кохлан, Джо Диксон, Джоэль Гильман, Дэйр Макмахон О фильме: Земля пережила конец света, уничтоживший почти всех людей. Пол и его сыновья Томас и Джозеф - одни из немногих выживших, скрывшихся в отдаленном доме. Однако их жизнь все еще далека от спокойной: с каждым заходом солнца просыпаются свирепые и жестокие существа, которые уничтожают все живое на своем пути. Но однажды им придется выйти во тьму. Выпущено: Канада, США, Ирландия, Aperture Media Partners, Highland Film Group (HFG), Redline Entertainment (II) Продолжительность: 01:31:46 Перевод: Профессиональный (полное дублирование) | Мосфильм-Мастер | TS Субтитры: Русские (full (stirlooo)), английские Файл Формат: Matroska Качество: WEB-DLRip 720p Видео: 1280x544 at 23.976 fps, x264@L4.1, ~3034 kbps Аудио 1: AC3, 2 ch, ~192 kbps - | Русский | Аудио 2: AC3, 6 ch, ~448 kbps - | Английский | Формат субтитров: softsub (SRT) ***Рип от: -=DoMiNo=-
[+] M/Ix264 : frame I:652 Avg QP:13.49 size: 62529 x264 : frame P:31209 Avg QP:15.13 size: 29897 x264 : frame B:100168 Avg QP:18.03 size: 11129 General Unique ID : 339037220498868305629560285606171974166 (0xFF10318AA961CBCD908A051509F91A16) Complete name : S:Arcadian.DUB.WEB-DLRip.720p.x264.mkv Format : Matroska Format version : Version 4 File size : 2.36 GiB Duration : 1 h 31 min Overall bit rate : 3 677 kb/s Frame rate : 23.976 FPS Movie name : Arcadian.DUB.WEB-DLRip.720p.x264 Encoded date : 2024-05-02 15:27:41 UTC Writing application : mkvmerge v84.0 ('Sleeper') 64-bit Writing library : libebml v1.4.5 + libmatroska v1.7.1 Cover : Yes Attachments : cover.jpg / small_cover.jpg Video ID : 1 Format : AVC Format/Info : Advanced Video Codec Format profile : High@L4.1 Format settings : CABAC / 5 Ref Frames Format settings, CABAC : Yes Format settings, Reference : 5 frames Codec ID : V_MPEG4/ISO/AVC Duration : 1 h 31 min Bit rate : 3 034 kb/s Width : 1 280 pixels Height : 544 pixels Display aspect ratio : 2.35:1 Frame rate mode : Constant Frame rate : 23.976 (24000/1001) FPS Color space : YUV Chroma subsampling : 4:2:0 Bit depth : 8 bits Scan type : Progressive Bits/(Pixel*Frame) : 0.182 Stream size : 1.95 GiB (83%) Title : -=DoMiNo=- Writing library : x264 core 164 r3190 -DoMiNo Encoding settings : cabac=1 / ref=5 / deblock=1:0:0 / analyse=0x3:0x133 / me=umh / subme=10 / psy=1 / psy_rd=0.98:0.00 / mixed_ref=1 / me_range=32 / chroma_me=1 / trellis=2 / 8x8dct=1 / cqm=0 / deadzone=21,11 / fast_pskip=0 / chroma_qp_offset=-2 / threads=17 / lookahead_threads=4 / sliced_threads=0 / nr=0 / decimate=1 / interlaced=0 / bluray_compat=0 / constrained_intra=0 / bframes=12 / b_pyramid=2 / b_adapt=2 / b_bias=0 / direct=3 / weightb=1 / open_gop=0 / weightp=2 / keyint=240 / keyint_min=23 / scenecut=40 / intra_refresh=0 / rc_lookahead=60 / rc=crf / mbtree=0 / crf=18.8 / qcomp=0.60 / qpmin=0 / qpmax=69 / qpstep=4 / vbv_maxrate=50000 / vbv_bufsize=62500 / crf_max=0.0 / nal_hrd=none / filler=0 / ip_ratio=1.40 / pb_ratio=1.30 / aq=3:1.00 Language : English Default : Yes Forced : No Color range : Limited Color primaries : BT.709 Transfer characteristics : BT.709 Matrix coefficients : BT.709 Audio #1 ID : 2 Format : AC-3 Format/Info : Audio Coding 3 Commercial name : Dolby Digital Codec ID : A_AC3 Duration : 1 h 31 min Bit rate mode : Constant Bit rate : 192 kb/s Channel(s) : 2 channels Channel layout : L R Sampling rate : 48.0 kHz Frame rate : 31.250 FPS (1536 SPF) Compression mode : Lossy Stream size : 126 MiB (5%) Title : DUB -Мосфильм-Мастер TS Language : Russian Service kind : Complete Main Default : Yes Forced : No Audio #2 ID : 3 Format : AC-3 Format/Info : Audio Coding 3 Commercial name : Dolby Digital Codec ID : A_AC3 Duration : 1 h 31 min Bit rate mode : Constant Bit rate : 448 kb/s Channel(s) : 6 channels Channel layout : L R C LFE Ls Rs Sampling rate : 48.0 kHz Frame rate : 31.250 FPS (1536 SPF) Compression mode : Lossy Stream size : 294 MiB (12%) Language : English Service kind : Complete Main Default : No Forced : No AC3_metadata cmixlev : -4.5 dB surmixlev : -6 dB Text #1 ID : 4 Format : UTF-8 Codec ID : S_TEXT/UTF8 Codec ID/Info : UTF-8 Plain Text Duration : 1 h 26 min Bit rate : 37 b/s Frame rate : 0.118 FPS Count of elements : 608 Stream size : 23.8 KiB (0%) Title : Full (stirlooo) Language : Russian Default : No Forced : No Text #2 ID : 5 Format : UTF-8 Codec ID : S_TEXT/UTF8 Codec ID/Info : UTF-8 Plain Text Duration : 1 h 26 min Bit rate : 25 b/s Frame rate : 0.133 FPS Count of elements : 690 Stream size : 16.5 KiB (0%) Language : English (US) Default : No Forced : No Text #3 ID : 6 Format : UTF-8 Codec ID : S_TEXT/UTF8 Codec ID/Info : UTF-8 Plain Text Duration : 1 h 30 min Bit rate : 31 b/s Frame rate : 0.207 FPS Count of elements : 1127 Stream size : 21.1 KiB (0%) Title : SDH Language : English (US) Default : No Forced : No Menu 00:00:00.000 : en:Scene 1 01:27:28.416 : en:End Credits

Всего файлов в раздаче: 1 
Arcadian.DUB.WEB-DLRip.720p.x264.mkv2.36 GB

Похожие раздачи по запросу - Судная
2024-05-07 magnet Судная ночь в Аркадии / Arcadian (2024) WEB-DLRip от ELEKTRI4KA | D 1.46 GB ↑ 0 ↓ 0
2024-05-07 magnet Судная ночь в Аркадии / Arcadian (2024) WEB-DL 1080p от ELEKTRI4KA | D 5.37 GB ↑ 0 ↓ 0
2024-05-07 magnet Судная ночь в Аркадии / Arcadian (2024) WEB-DLRip-AVC от ExKinoRay | D 1.54 GB ↑ 0 ↓ 0
2024-05-07 magnet Судная ночь в Аркадии / Arcadian (2024) WEB-DL 2160p от ELEKTRI4KA | 4K | SDR | D 10.23 GB ↑ 0 ↓ 1
2024-05-07 magnet Судная ночь в Аркадии / Arcadian (2024) WEB-DLRip 720p от ExKinoRay | D 2.28 GB ↑ 0 ↓ 0
2024-05-07 magnet Судная ночь в Аркадии / Arcadian (2024) WEB-DLRip-AVC от New-Team | D 1.76 GB ↑ 0 ↓ 0
2024-05-07 magnet Судная ночь в Аркадии / Arcadian (2024) WEB-DLRip 720p от DoMiNo & селезень | D 2.48 GB ↑ 0 ↓ 0

Комментарии


Зарегистрируйтесь чтобы добавить комментарий
Торрент клиент
byTorrent - программа для загрузки торрент-файлов.

Скачать byTorrent.exe (1,5 МБ)

Скачать byTorrent.zip (0,6 МБ)

Поддержи torrent.by
российских рублей
(300 российских рублей это 4$)

Обратная связь rss

End game ©