↑↓torrent.by
Поиск
Логин:  Регистрация
Пароль:

Лучшее еще впереди / Достучаться до небес 2 / Das Beste kommt noch! (2023) HDRip-AVC от JNS82 | L

download Скачать торрент-файл   magnet Магнитная ссылка Размер: 2.08 GB Добавлен: 2024-05-03 05:00
Пиры будут получены из сети DHT
Последний сидер был замечен 2024-05-17 03:50
Лучшее еще впереди / Достучаться до небес 2 / Das Beste kommt noch! Год выпуска: 2023 Выпущено: Германия / barefoot films, Constantin Film, Olga Film GmbH Жанр: комедия Режиссер: Тиль Швайгер / Til Schweiger В ролях: Тиль Швайгер, Михаэль Мертенс, Неда Рахманян, Франциска Махенс, Эмма Швайгер, Каро Культ, Хайно Ферх, Карло Льюбек, Петер Симонишек, Тимур Бартельс, Роман Боер де Гарсес, Кай Грюнвальд, Майя Хаддад, Андреа Паула Пауль, Мурали Перумал О фильме: Ошибочно решив, что их обоих вот-вот настигнет смертельная болезнь, друзья бросаются напоследок исполнить все свои заветные желания. Для этого им потребуется чужая тачка, двугорбый верблюд, бутылка самого дорогого шампанского и любовь прекрасных женщин, которым они всю жизнь собирались в чем-то признаться, но все как-то не хватало времени. Продолжительность: 01:50:10 Перевод: Любительский (многоголосый, закадровый) | AlphaProject Субтитры: нет. Автор релиза: JNS82. Формат: MKV Качество: HDRip-AVC Видео: MPEG-4 AVC, 2445 Кбит/с, (2,40:1), 1024x426, 24,000 fps Аудио #1: 48 kHz, AC3 Dolby Digital, 2/0 (L,R) ch, ~ 256 kbps | RUS |
[+] MediaInfoОбщее Уникальный идентификатор : 124119202915677564037576995293489556429 (0x5D607D2C4727B4BD1CB38867B8786BCD) Полное имя : D:TorrentsDas.Beste.Kommt.Noch.2023.HDRip-AVC_от_JNS82.mkv Формат : Matroska Версия формата : Version 4 Размер файла : 2,08 Гбайт Продолжительность : 1 ч. 50 м. Общий поток : 2 702 Кбит/сек Название фильма : Das.Beste.Kommt.Noch.2023.HDRip-AVC_от_JNS82 Дата кодирования : UTC 2024-05-02 16:05:15 Программа кодирования : mkvmerge v79.0 ('Funeral Pyres') 64-bit Библиотека кодирования : libebml v1.4.4 + libmatroska v1.7.1 Видео Идентификатор : 1 Формат : AVC Формат/Информация : Advanced Video Codec Профиль формата : High@L4.1 Настройки формата : CABAC / 12 Ref Frames Параметр CABAC формата : Да Параметр RefFrames формата : 12 кадров Идентификатор кодека : V_MPEG4/ISO/AVC Продолжительность : 1 ч. 50 м. Битрейт : 2 445 Кбит/сек Ширина : 1 024 пикселя Высота : 426 пикселей Соотношение сторон : 2,40:1 Режим частоты кадров : Постоянный Частота кадров : 24,000 кадра/сек Цветовое пространство : YUV Субдискретизация насыщенности : 4:2:0 Битовая глубина : 8 бит Тип развёртки : Прогрессивная Бит/(Пиксели*Кадры) : 0.234 Размер потока : 1,88 Гбайт (90%) Библиотека кодирования : x264 core 164 r3156+57M NewTeam t_mod_New Настройки программы : cabac=1 / ref=12 / deblock=1:-3:-3 / analyse=0x3:0x113 / me=umh / subme=10 / psy=1 / fade_compensate=0.00 / psy_rd=1.05:0.03 / mixed_ref=1 / me_range=32 / chroma_me=1 / trellis=2 / 8x8dct=1 / cqm=0 / deadzone=21,11 / fast_pskip=0 / chroma_qp_offset=-3 / threads=13 / lookahead_threads=3 / sliced_threads=0 / nr=0 / decimate=0 / interlaced=0 / bluray_compat=0 / constrained_intra=0 / fgo=0 / bframes=12 / b_pyramid=2 / b_adapt=2 / b_bias=0 / direct=3 / weightb=1 / open_gop=0 / weightp=2 / keyint=240 / keyint_min=23 / scenecut=40 / intra_refresh=0 / rc_lookahead=60 / rc=2pass / mbtree=0 / bitrate=2445 / ratetol=1.0 / qcomp=0.60 / qpmin=0:0:0 / qpmax=69:69:69 / qpstep=5 / cplxblur=20.0 / qblur=0.5 / vbv_maxrate=50000 / vbv_bufsize=62500 / nal_hrd=none / filler=0 / ip_ratio=1.35 / pb_ratio=1.30 / aq=1:1.00 / aq-sensitivity=10.00 / aq-factor=1.00:1.00:1.00 / aq2=0 / aq3=0 Язык : English Default : Да Forced : Нет Аудио Идентификатор : 2 Формат : AC-3 Формат/Информация : Audio Coding 3 Коммерческое название : Dolby Digital Идентификатор кодека : A_AC3 Продолжительность : 1 ч. 50 м. Вид битрейта : Постоянный Битрейт : 256 Кбит/сек Каналы : 2 канала Channel layout : L R Частота : 48,0 КГц Частота кадров : 31,250 кадров/сек (1536 SPF) Метод сжатия : С потерями Размер потока : 202 Мбайт (9%) Заголовок : MVO - AlphaProject Язык : Russian Service kind : Complete Main Default : Да Forced : Нет

Всего файлов в раздаче: 1 
Das.Beste.Kommt.Noch.2023.HDRip-AVC_от_JNS82.mkv2.08 GB

Похожие раздачи по запросу - Лучшее
2024-04-06 magnet Нэнси - Лучшее 1992-2004 (2024) FLAC от DON Music 552.50 MB ↑ 0 ↓ 0
2021-06-07 magnet Наутилус Помпилиус - Лучшее (1983-1997) (2021) MP3 от DON Music 441.06 MB ↑ 1 ↓ 0

Кто качает (только для создателя раздачи и модераторов): Локальные пиры отсутствуют

Комментарии


Зарегистрируйтесь чтобы добавить комментарий
Торрент клиент
byTorrent - программа для загрузки торрент-файлов.

Скачать byTorrent.exe (1,5 МБ)

Скачать byTorrent.zip (0,6 МБ)

Поддержи torrent.by
российских рублей
(300 российских рублей это 4$)

Обратная связь rss

End game ©