↑↓torrent.by
Поиск
Логин:  Регистрация
Пароль:

Мятежная Луна, часть 2: Оставляющая шрамы / Rebel Moon - Part Two: The Scargiver (2024) WEB-DL HEVC 2160p | 4K | HDR | Dolby Vision Profile 8 | D

download Скачать торрент-файл   magnet Магнитная ссылка Размер: 11.25 GB Добавлен: 2024-05-03 11:00
Пиры будут получены из сети DHT
Последний сидер был замечен сегодня в 00:35
Информация о фильме Название: Мятежная Луна, часть 2: Оставляющая шрамы Оригинальное название: Rebel Moon - Part Two: The Scargiver Год выхода: 2024 Жанр: фантастика, боевик, драма Режиссер: Зак Снайдер В ролях: София Бутелла, Эд Скрейн, Михил Хёйсман, Джимон Хонсу, Пэ Ду-на, Стаз Нэйр, Джена Мэлоун, Стюарт Мартин, Энтони Хопкинс, Кэри Элвес О фильме: Вернувшись на Велдт, Кора с отрядом наёмников и местными крестьянами готовится дать бой превосходящим силам агрессоров под предводительством адмирала Нобла. Страна: США Студия: Grand Electric, The Stone Quarry Продолжительность: 02:03:55 Перевод: Дублированный (неофициальный) | HDrezka Studio Файл Кодек: H.265 Качество: WEB-DL HEVC 2160p | 4K | HDR | Dolby Vision Profile 8 Видео: 3840x2160, ~12 Mb/s, 24fps, 10 bit Звук: Аудио 1: AAC, 48.0 kHz, 2 ch, 192 kb/s | RUS Аудио 2: E-AC3 JOC, 48.0 kHz, 6 ch, 768 kb/s | ENG Субтитры: Русские (full), английские (full, sdh)
[+] MediaInfoGeneral Unique ID : 133032714641755211843131234522975599745 (0x64152B3B240F35B1F692260263667C81) Complete name : F:MoviesФильмыRebel Moon. Part Two. The Scargiver.mkv Format : Matroska Format version : Version 4 File size : 11.3 GiB Duration : 2 h 3 min Overall bit rate : 13.0 Mb/s Frame rate : 24.000 FPS Encoded date : 2024-05-01 08:09:34 UTC Writing application : mkvmerge v82.0 ('I'm The President') 64-bit Writing library : libebml v1.4.5 + libmatroska v1.7.1 Cover : Yes Attachments : cover.jpg Video ID : 1 Format : HEVC Format/Info : High Efficiency Video Coding Format profile : Main 10@L5@Main HDR format : Dolby Vision, Version 1.0, Profile 8.1, dvhe.08.06, BL+RPU, HDR10 compatible / SMPTE ST 2086, Version HDR10, HDR10 compatible Codec ID : V_MPEGH/ISO/HEVC Duration : 2 h 3 min Bit rate : 12.0 Mb/s Width : 3 840 pixels Height : 2 160 pixels Display aspect ratio : 16:9 Frame rate mode : Constant Frame rate : 24.000 FPS Color space : YUV Chroma subsampling : 4:2:0 (Type 2) Bit depth : 10 bits Bits/(Pixel*Frame) : 0.060 Stream size : 10.4 GiB (93%) Default : Yes Forced : No Color range : Limited Color primaries : BT.2020 Transfer characteristics : PQ Matrix coefficients : BT.2020 non-constant Mastering display color pri : Display P3 Mastering display luminance : min: 0.0001 cd/m2, max: 1000 cd/m2 Maximum Content Light Level : 405 cd/m2 Maximum Frame-Average Light : 367 cd/m2 Audio #1 ID : 2 Format : AAC LC Format/Info : Advanced Audio Codec Low Complexity Codec ID : A_AAC-2 Duration : 2 h 3 min Bit rate : 192 kb/s Channel(s) : 2 channels Channel layout : L R Sampling rate : 48.0 kHz Frame rate : 46.875 FPS (1024 SPF) Compression mode : Lossy Stream size : 171 MiB (1%) Title : HDrezka Studio DUB Language : Russian Default : Yes Forced : No Audio #2 ID : 3 Format : E-AC-3 JOC Format/Info : Enhanced AC-3 with Joint Object Coding Commercial name : Dolby Digital Plus with Dolby Atmos Codec ID : A_EAC3 Duration : 2 h 3 min Bit rate mode : Constant Bit rate : 768 kb/s Channel(s) : 6 channels Channel layout : L R C LFE Ls Rs Sampling rate : 48.0 kHz Frame rate : 31.250 FPS (1536 SPF) Compression mode : Lossy Stream size : 681 MiB (6%) Title : Original Language : English Service kind : Complete Main Default : No Forced : No Complexity index : 16 Number of dynamic objects : 15 Bed channel count : 1 channel Bed channel configuration : LFE Text #1 ID : 4 Format : UTF-8 Codec ID : S_TEXT/UTF8 Codec ID/Info : UTF-8 Plain Text Duration : 2 h 0 min Bit rate : 47 b/s Frame rate : 0.118 FPS Count of elements : 858 Stream size : 42.2 KiB (0%) Title : Russian Language : Russian Default : No Forced : No Text #2 ID : 5 Format : UTF-8 Codec ID : S_TEXT/UTF8 Codec ID/Info : UTF-8 Plain Text Duration : 1 h 51 min Bit rate : 34 b/s Frame rate : 0.136 FPS Count of elements : 910 Stream size : 28.4 KiB (0%) Title : Full Language : English Default : No Forced : No Text #3 ID : 6 Format : UTF-8 Codec ID : S_TEXT/UTF8 Codec ID/Info : UTF-8 Plain Text Duration : 1 h 59 min Bit rate : 45 b/s Frame rate : 0.191 FPS Count of elements : 1378 Stream size : 39.7 KiB (0%) Title : SDH Language : English Default : No Forced : No
[+] Скриншоты

Всего файлов в раздаче: 1 
Rebel Moon. Part Two. The Scargiver.mkv11.25 GB

Похожие раздачи по запросу - Мятежная
2024-04-29 magnet Мятежная Луна, часть 2: Оставляющая шрамы / Rebel Moon - Part Two: The Scargiver (2024) WEB-DL 1080p от New-Team | D, P 6.30 GB ↑ 0 ↓ 1
2024-04-29 magnet Мятежная Луна, часть 2: Оставляющая шрамы / Rebel Moon - Part Two: The Scargiver (2024) WEB-DLRip 720p от DoMiNo & селезень | D, P, P2 4.39 GB ↑ 0 ↓ 0
2024-04-28 magnet Мятежная Луна, часть 2: Оставляющая шрамы / Rebel Moon - Part Two: The Scargiver (2024) WEB-DLRip 720p от DoMiNo & селезень | D, P, P2 3.78 GB ↑ 0 ↓ 0
2024-04-28 magnet Мятежная Луна, часть 2: Оставляющая шрамы / Rebel Moon - Part Two: The Scargiver (2024) WEB-DL 1080p от EniaHD | D, P, P2, L 7.79 GB ↑ 0 ↓ 0
2024-04-24 magnet Мятежная Луна, часть 2: Дарующая шрамы / Rebel Moon. Частина 2: Та, що лишає шрами / Rebel Moon - Part Two: The Scargiver (2024) WEB-DL-HEVC 2160p | 4K | HDR | Dolby Vision Profile 8 | D | Netflix | UKR 11.75 GB ↑ 0 ↓ 0
2024-04-23 magnet Мятежная Луна, часть 2: Оставляющая шрамы / Rebel Moon - Part Two: The Scargiver (2024) WEB-DL-HEVC 2160p | 4K | HDR | P, P2 12.50 GB ↑ 0 ↓ 0
2024-04-22 magnet Мятежная Луна, часть 1: Дитя огня / Rebel Moon: Part One - A Child of Fire (2023) WEB-DL-HEVC 2160p | 4K | SDR | D, P, A 20.74 GB ↑ 0 ↓ 0

Комментарии


Зарегистрируйтесь чтобы добавить комментарий
Торрент клиент
byTorrent - программа для загрузки торрент-файлов.

Скачать byTorrent.exe (1,5 МБ)

Скачать byTorrent.zip (0,6 МБ)

Поддержи torrent.by
российских рублей
(300 российских рублей это 4$)

Обратная связь rss

End game ©