↑↓torrent.by
Поиск
Логин:  Регистрация
Пароль:

Ограбление на Бейкер-Стрит / The Bank Job (2008) BDRip 720p

download Скачать торрент-файл   magnet Магнитная ссылка Размер: 7.87 GB Добавлен: 2024-05-03 17:00
Пиры будут получены из сети DHT
Последний сидер был замечен 2024-05-14 11:44
Ограбление на Бейкер-Стрит / The Bank Job (2008) BDRip Производство: U.K., USA, Australia / Mosaic Media Group, Relativity Media, Skyline (Baker St) Жанр: триллер, драма, криминал Режиссер: Роджер Дональдсон Актеры: Джейсон Стэйтем, Саффрон Берроуз, Стивен Кэмпбелл Мур, Дэниэл Мейс, Джеймс Фолкнер, Алки Дэвид, Майкл Джибсон, Джорджия Тейлор, Ричард Линтерн, Питер Боулз Описание фильма: Фильм основан на реальных событиях, происходивших в Великобритании в 1971 году. После 35 лет забвения мы наконец узнаем об одном из самых легендарных ограблений банка в истории Великобритании, когда не было произведено ни одного ареста и не было найдено ни малейшего следа похищенных денег. Налёт на банк на Бейкер Стрит был инициирован высокопоставленными официальными лицами, пытающимися добраться до заветной банковской ячейки, в которой хозяйка одного из известнейших борделей Лондона хранила секретную информацию. Теперь запрет на разглашение информации об этом ограблении снят британским правительством, и перед нами открывается красочная, лихо закрученная история, полная тайн, сюрпризов и неожиданных поворотов... Продолжительность: 01:51:39 Качество: BDRip (720p) Перевод: профессиональный (полное дублирование), профессиональный (многоголосый закадровый), авторский (одноголосый закадровый) Вид субтитров: вшитые, отключаемые Язык субтитров: русские, английские Видео: MPEG-4 AVC/H.264, 1280 x 544 (2,35:1), 6 423 kbps, 23.976 fps, 0.385 b/px Аудио # 1: AC3, 6 ch, 640 kbps, 48 000 Hz Аудио # 2: AC3, 6 ch, 448 kbps, 48 000 Hz Аудио # 3: АС3, 6 ch, 640 kbps, 48 000 Hz Аудио # 4: АС3, 6 ch, 640 kbps, 48 000 Hz Аудио # 5: AC3, 6 ch, 448 kbps, 48 000 Hz Аудио # 6: AC3, 6 ch, 640 kbps, 48 000 Hz
[+] MediaInfoОбщее Уникальный идентификатор : 204508089458624083656433764088134484896 (0x99DAD34934A20D28B7EF9CDFB3B3C3A0) Полное имя : E: Ограбление на Бейкер-Стрит .mkv Формат : Matroska Версия формата : Version 4 / Version 2 Размер файла : 7,87 Гбайт Продолжительность : 1 ч. 51 м. Общий поток : 10,1 Мбит/сек Название фильма : Ограбление на Бейкер-Стрит / The Bank Job (2008) BDRip Дата кодирования : UTC 2015-02-01 14:52:34 Программа кодирования : mkvmerge v7.5.0 ('Glass Culture') 32bit built on Jan 4 2015 16:37:25 Библиотека кодирования : libebml v1.3.1 + libmatroska v1.4.2 _STATISTICS_WRITING_APP : mkvmerge v7.5.0 ('Glass Culture') 32bit built on Jan 4 2015 16:37:25 _STATISTICS_WRITING_DATE_UTC : 2015-02-01 14:52:34 _STATISTICS_TAGS : BPS DURATION NUMBER_OF_FRAMES NUMBER_OF_BYTES DURATION : 01:44:07.310000000 NUMBER_OF_FRAMES : 1581 NUMBER_OF_BYTES : 58210 Видео Идентификатор : 1 Формат : AVC Формат/Информация : Advanced Video Codec Профиль формата : High@L4.1 Параметр CABAC формата : Да Параметр ReFrames формата : 12 кадров Идентификатор кодека : V_MPEG4/ISO/AVC Продолжительность : 1 ч. 51 м. Битрейт : 6423 Кбит/сек Ширина : 1280 пикселей Высота : 544 пикселя Соотношение сторон : 2,35:1 Режим частоты кадров : Постоянный Частота кадров : 23,976 кадра/сек Цветовое пространство : YUV Субдискретизация насыщенности : 4:2:0 Битовая глубина : 8 бит Тип развёртки : Прогрессивная Бит/(Пиксели*Кадры) : 0.385 Размер потока : 5,02 Гбайт (64%) Заголовок : Ограбление на Бейкер-Стрит / The Bank Job Библиотека кодирования : x264 core 130 r2273 b3065e6 Настройки программы : cabac=1 / ref=12 / deblock=1:-3:-3 / analyse=0x3:0x133 / me=umh / subme=10 / psy=1 / psy_rd=1.00:0.00 / mixed_ref=1 / me_range=24 / chroma_me=1 / trellis=2 / 8x8dct=1 / cqm=0 / deadzone=21,11 / fast_pskip=0 / chroma_qp_offset=-2 / threads=12 / lookahead_threads=2 / sliced_threads=0 / nr=0 / decimate=0 / interlaced=0 / bluray_compat=0 / constrained_intra=0 / bframes=8 / b_pyramid=2 / b_adapt=2 / b_bias=0 / direct=3 / weightb=1 / open_gop=0 / weightp=2 / keyint=250 / keyint_min=23 / scenecut=40 / intra_refresh=0 / rc_lookahead=60 / rc=crf / mbtree=0 / crf=16.0 / qcomp=0.75 / qpmin=0 / qpmax=69 / qpstep=4 / vbv_maxrate=50000 / vbv_bufsize=62500 / crf_max=0.0 / nal_hrd=none / ip_ratio=1.30 / pb_ratio=1.20 / aq=1:0.70 Язык : English Default : Да Forced : Нет _STATISTICS_WRITING_APP : mkvmerge v7.5.0 ('Glass Culture') 32bit built on Jan 4 2015 16:37:25 _STATISTICS_WRITING_DATE_UTC : 2015-02-01 14:52:34 _STATISTICS_TAGS : BPS DURATION NUMBER_OF_FRAMES NUMBER_OF_BYTES DURATION : 01:51:40.152000000 NUMBER_OF_FRAMES : 160643 NUMBER_OF_BYTES : 5553310933 Аудио #1 Идентификатор : 2 Формат : AC-3 Формат/Информация : Audio Coding 3 Расширение режима : CM (complete main) Параметр Endianness формата : Big Идентификатор кодека : A_AC3 Продолжительность : 1 ч. 51 м. Вид битрейта : Постоянный Битрейт : 640 Кбит/сек Каналы : 6 каналов Расположение каналов : Front: L C R, Side: L R, LFE Частота : 48,0 КГц Битовая глубина : 16 бит Метод сжатия : С потерями Размер потока : 512 Мбайт (6%) Заголовок : Дублированный (Blu-Ray Rus) Язык : Russian Default : Да Forced : Нет Аудио #2 Идентификатор : 3 Формат : AC-3 Формат/Информация : Audio Coding 3 Расширение режима : CM (complete main) Параметр Endianness формата : Big Идентификатор кодека : A_AC3 Продолжительность : 1 ч. 51 м. Вид битрейта : Постоянный Битрейт : 448 Кбит/сек Каналы : 6 каналов Расположение каналов : Front: L C R, Side: L R, LFE Частота : 48,0 КГц Битовая глубина : 16 бит Метод сжатия : С потерями Размер потока : 358 Мбайт (4%) Заголовок : Многоголосый закадровый (С.Р.И.) Язык : Russian Default : Нет Forced : Нет Аудио #3 Идентификатор : 4 Формат : AC-3 Формат/Информация : Audio Coding 3 Расширение режима : CM (complete main) Параметр Endianness формата : Big Идентификатор кодека : A_AC3 Продолжительность : 1 ч. 51 м. Вид битрейта : Постоянный Битрейт : 640 Кбит/сек Каналы : 6 каналов Расположение каналов : Front: L C R, Side: L R, LFE Частота : 48,0 КГц Битовая глубина : 16 бит Метод сжатия : С потерями Размер потока : 512 Мбайт (6%) Заголовок : Одноголосый закадровый (А.Гаврилов) Язык : Russian Default : Нет Forced : Нет Аудио #4 Идентификатор : 5 Формат : AC-3 Формат/Информация : Audio Coding 3 Расширение режима : CM (complete main) Параметр Endianness формата : Big Идентификатор кодека : A_AC3 Продолжительность : 1 ч. 51 м. Вид битрейта : Постоянный Битрейт : 640 Кбит/сек Каналы : 6 каналов Расположение каналов : Front: L C R, Side: L R, LFE Частота : 48,0 КГц Битовая глубина : 16 бит Метод сжатия : С потерями Размер потока : 512 Мбайт (6%) Заголовок : Одноголосый закадровый (Ю.Немахов) Язык : Russian Default : Нет Forced : Нет Аудио #5 Идентификатор : 6 Формат : AC-3 Формат/Информация : Audio Coding 3 Расширение режима : CM (complete main) Параметр Endianness формата : Big Идентификатор кодека : A_AC3 Продолжительность : 1 ч. 51 м. Вид битрейта : Постоянный Битрейт : 448 Кбит/сек Каналы : 6 каналов Расположение каналов : Front: L C R, Side: L R, LFE Частота : 48,0 КГц Битовая глубина : 16 бит Метод сжатия : С потерями Размер потока : 358 Мбайт (4%) Заголовок : Многоголосый закадровый (1+1) Язык : Ukrainian Default : Нет Forced : Нет Аудио #6 Идентификатор : 7 Формат : AC-3 Формат/Информация : Audio Coding 3 Расширение режима : CM (complete main) Параметр Endianness формата : Big Идентификатор кодека : A_AC3 Продолжительность : 1 ч. 51 м. Вид битрейта : Постоянный Битрейт : 640 Кбит/сек Каналы : 6 каналов Расположение каналов : Front: L C R, Side: L R, LFE Частота : 48,0 КГц Битовая глубина : 16 бит Метод сжатия : С потерями Размер потока : 512 Мбайт (6%) Заголовок : Оригинальный Язык : English Default : Нет Forced : Нет Текст #1 Идентификатор : 8 Формат : UTF-8 Идентификатор кодека : S_TEXT/UTF8 Идентификатор кодека/Информация : UTF-8 Plain Text Заголовок : Russian Язык : Russian Default : Нет Forced : Нет Текст #2 Идентификатор : 9 Формат : UTF-8 Идентификатор кодека : S_TEXT/UTF8 Идентификатор кодека/Информация : UTF-8 Plain Text Заголовок : English Язык : English Default : Нет Forced : Нет Меню 00:00:00.000 : :A Proposition For You 00:07:32.827 : :Big Score 00:13:27.432 : :Not Bank Robbers 00:21:06.140 : :What's the Verdict? 00:28:08.103 : :Safety Deposit 00:36:11.419 : :Digging Deep 00:41:36.160 : :Professional Criminals 00:47:32.975 : :Moving In 00:54:13.500 : :Night Watch 01:00:50.105 : :Hidden Chamber 01:05:54.951 : :The Vault 01:13:37.622 : :Making Some Money 01:19:53.914 : :Unexpected Visitors 01:27:47.512 : :Closed Communication 01:34:34.544 : :Lost Control 01:43:03.844 : :118
[+] Скриншоты

Всего файлов в раздаче: 1 
[2008] Ограбление на Бейкер-Стрит [BDRip] [720p].mkv7.87 GB

Похожие раздачи по запросу - Ограбление
2024-02-09 magnet Воздушное ограбление / Lift (2024) WEB-DL-HEVC 2160p | 4K | SDR | D 10.33 GB ↑ 0 ↓ 0
2024-02-09 magnet Воздушное ограбление / Lift (2024) WEB-DL 1080p от Scarabey | D | Red Head Sound 4.69 GB ↑ 0 ↓ 0
2024-01-22 magnet Воздушное ограбление / Lift (2024) WEB-DLRip-AVC от ExKinoRay | P2 745.16 MB ↑ 0 ↓ 0
2024-01-15 magnet Воздушное ограбление / Lift (2024) WEB-DLRip от toxics | P2 | ViruseProject 2.18 GB ↑ 0 ↓ 0
2024-01-14 magnet Воздушное ограбление / Lift (2024) WEB-DLRip 720p от DoMiNo | L2 | Zetflix 2.37 GB ↑ 0 ↓ 0
2024-01-14 magnet Воздушное ограбление / Lift (2024) WEB-DL 1080p от JNS82 | L2 | Zetflix 1К4.36 GB ↑ 0 ↓ 0
2023-09-17 magnet Ограбление из будущего / The Tomorrow Job (2023) WEB-DL 1080p от селезень | D 7.40 GB ↑ 1 ↓ 0

Кто качает (только для создателя раздачи и модераторов): Локальные пиры отсутствуют

Комментарии


Зарегистрируйтесь чтобы добавить комментарий
Торрент клиент
byTorrent - программа для загрузки торрент-файлов.

Скачать byTorrent.exe (1,5 МБ)

Скачать byTorrent.zip (0,6 МБ)

Поддержи torrent.by
российских рублей
(300 российских рублей это 4$)

Обратная связь rss

End game ©