↑↓torrent.by
Поиск
Логин:  Регистрация
Пароль:

Земля мафии / Mob Land (2023) BDRemux 1080p | D, P2

download Скачать торрент-файл   magnet Магнитная ссылка Размер: 23.53 GB Добавлен: 2024-05-03 17:00
Пиры будут получены из сети DHT
Последний сидер был замечен вчера в 21:25
Информация о фильме Название: Земля мафии Оригинальное название: Mob Land Год выхода: 2023 Жанр: Боевик, триллер, криминал Режиссер: Николас Маджио В ролях: Шайло Фернандес, Кевин Диллон, Джон Траволта, Стивен Дорфф, Эшли Бенсон, Тиа ДиМартино, Тимоти В. Мерфи, Роберт Миано, Дебра Нельсон, Эмили Треймейн О фильме: Провинциальный американский городок. Простые работяги Шелби и Трей решают устроить дерзкое ограбление, чтобы достать деньги для своей семьи. Их преступление идет не по плану, из-за чего они ввязываются в перестрелку, убивают двух человек и едва скрываются с места. Вскоре на их след нападает опытный шериф Боди Дэвис, который хочет во что бы то ни стало покончить с наркобизнесом, медленно пожирающим его родной город. Однако служитель закона оказывается вовсе не самым опасным противником Шелби и Трея. Грабители даже не подозревают, что украденные ими деньги принадлежат могущественному мафиозному боссу, который жаждет отомстить людям, сорвавшим его планы. Страна: Канада Студия: 308 Ent, BondIt, Buffalo 8 Productions, Three Point Capital Продолжительность: 01:51:32 Перевод 1: Профессиональный (дублированный) | Akimbo Production Перевод 2: Профессиональный (двухголосый, закадровый) | ViruseProject Файл Формат: MKV Качество: BDRemux 1080p Видео: MPEG-4 AVC, 1920x1080 (16:9), 26.0 Mbps, 23.976 fps Аудио 1: Russian: E-AC3, 48.0 kHz, 5.1 ch, 448 kbps | DUB, Akimbo Production Аудио 2: Russian: AC3, 48.0 kHz, 2.0 ch, 224 kbps | DVO, ViruseProject Аудио 3: English: DTS-HD MA, 48.0 kHz, 5.1 ch, 3525 kbps | Original Субтитры: Русские (Forced, Full), английские
[+] Скриншоты
[+] Инфо-файлGeneral Unique ID : 98201138259152757292398662632013982406 (0x49E0D9ED22328A1F47BE9E8A439A6AC6) Complete name : Mob.Land.2023.BDRemux.1080p.pk.mkv Format : Matroska Format version : Version 4 File size : 23.5 GiB Duration : 1 h 51 min Overall bit rate mode : Variable Overall bit rate : 30.2 Mb/s Frame rate : 23.976 FPS Movie name : Mob Land 2023 BDRemux 1080p pk Encoded date : 2024-05-02 22:36:46 UTC Writing application : mkvmerge v83.0 ('Circle Of Friends') 64-bit Writing library : libebml v1.4.5 + libmatroska v1.7.1 Cover : Yes Attachments : cover.jpg Video ID : 1 Format : AVC Format/Info : Advanced Video Codec Format profile : High@L4.1 Format settings : CABAC / 4 Ref Frames Format settings, CABAC : Yes Format settings, Reference frames : 4 frames Format settings, Slice count : 4 slices per frame Codec ID : V_MPEG4/ISO/AVC Duration : 1 h 51 min Bit rate mode : Variable Bit rate : 26.0 Mb/s Maximum bit rate : 35.0 Mb/s Width : 1 920 pixels Height : 1 080 pixels Display aspect ratio : 16:9 Frame rate mode : Constant Frame rate : 23.976 (24000/1001) FPS Standard : NTSC Color space : YUV Chroma subsampling : 4:2:0 Bit depth : 8 bits Scan type : Progressive Bits/(Pixel*Frame) : 0.523 Stream size : 20.3 GiB (86%) Language : English Default : Yes Forced : No Color range : Limited Color primaries : BT.709 Transfer characteristics : BT.709 Matrix coefficients : BT.709 Audio #1 ID : 2 Format : E-AC-3 Format/Info : Enhanced AC-3 Commercial name : Dolby Digital Plus Codec ID : A_EAC3 Duration : 1 h 51 min Bit rate mode : Constant Bit rate : 448 kb/s Channel(s) : 6 channels Channel layout : L R C LFE Ls Rs Sampling rate : 48.0 kHz Frame rate : 31.250 FPS (1536 SPF) Compression mode : Lossy Stream size : 357 MiB (1%) Title : Russian Dub Akimbo Production Language : Russian Service kind : Complete Main Default : Yes Forced : No Dialog Normalization : -31 dB dialnorm_Average : -31 dB dialnorm_Minimum : -31 dB dialnorm_Maximum : -31 dB Audio #2 ID : 3 Format : AC-3 Format/Info : Audio Coding 3 Commercial name : Dolby Digital Codec ID : A_AC3 Duration : 1 h 50 min Bit rate mode : Constant Bit rate : 224 kb/s Channel(s) : 2 channels Channel layout : L R Sampling rate : 48.0 kHz Frame rate : 31.250 FPS (1536 SPF) Compression mode : Lossy Stream size : 178 MiB (1%) Title : Russian DVO ViruseProject Language : Russian Service kind : Complete Main Default : No Forced : No Dialog Normalization : -31 dB dialnorm_Average : -31 dB dialnorm_Minimum : -31 dB dialnorm_Maximum : -31 dB Audio #3 ID : 4 Format : DTS XLL Format/Info : Digital Theater Systems Commercial name : DTS-HD Master Audio Codec ID : A_DTS Duration : 1 h 51 min Bit rate mode : Variable Bit rate : 3 525 kb/s Channel(s) : 6 channels Channel layout : C L R Ls Rs LFE Sampling rate : 48.0 kHz Frame rate : 93.750 FPS (512 SPF) Bit depth : 24 bits Compression mode : Lossless Stream size : 2.75 GiB (12%) Title : English Original Language : English Default : No Forced : No Text #1 ID : 5 Format : UTF-8 Codec ID : S_TEXT/UTF8 Codec ID/Info : UTF-8 Plain Text Duration : 1 h 2 min Bit rate : 0 b/s Frame rate : 0.002 FPS Count of elements : 7 Stream size : 207 Bytes (0%) Title : Russian forced Language : Russian Default : Yes Forced : No Text #2 ID : 6 Format : UTF-8 Codec ID : S_TEXT/UTF8 Codec ID/Info : UTF-8 Plain Text Duration : 1 h 42 min Bit rate : 63 b/s Frame rate : 0.178 FPS Count of elements : 1095 Stream size : 47.4 KiB (0%) Title : Russian full Language : Russian Default : No Forced : No Text #3 ID : 7 Format : UTF-8 Codec ID : S_TEXT/UTF8 Codec ID/Info : UTF-8 Plain Text Duration : 1 h 48 min Bit rate : 44 b/s Frame rate : 0.189 FPS Count of elements : 1237 Stream size : 35.8 KiB (0%) Title : English full Language : English Default : No Forced : No Text #4 ID : 8 Format : UTF-8 Codec ID : S_TEXT/UTF8 Codec ID/Info : UTF-8 Plain Text Duration : 1 h 50 min Bit rate : 60 b/s Frame rate : 0.262 FPS Count of elements : 1740 Stream size : 48.6 KiB (0%) Title : English SDH Language : English Default : No Forced : No Menu 00:00:00.000 : en:Chapter 01 00:07:18.438 : en:Chapter 02 00:14:31.871 : en:Chapter 03 00:22:08.327 : en:Chapter 04 00:28:10.689 : en:Chapter 05 00:32:29.948 : en:Chapter 06 00:40:07.614 : en:Chapter 07 00:49:50.988 : en:Chapter 08 00:58:00.102 : en:Chapter 09 01:06:34.991 : en:Chapter 10 01:14:36.889 : en:Chapter 11 01:22:13.345 : en:Chapter 12 01:28:59.334 : en:Chapter 13 01:35:12.123 : en:Chapter 14 01:41:09.063 : en:Chapter 15 01:46:41.395 : en:Chapter 16

Всего файлов в раздаче: 1 
Mob.Land.2023.BDRemux.1080p.pk.mkv23.53 GB

Похожие раздачи по запросу - Земля
2024-05-13 magnet Прощай, Земля / Jongmalui babo [S01] (2024) WEB-DL 720p | TVShows 17.16 GB ↑ 0 ↓ 0
2024-04-08 magnet BBC: Планета Земля / Planet Earth (2006) HDRip от HQ-ViDEO l Р1 1К8.01 GB ↑ 0 ↓ 0
2024-04-06 magnet BBC: Планета Земля 3 / Planet Earth III [S01] (2023) BDRip 720p | L2 21.17 GB ↑ 0 ↓ 0
2024-04-05 magnet Земля мафии / Mob Land (2023) BDRip от MegaPeer | D 1.46 GB ↑ 0 ↓ 0
2024-03-02 magnet BBC: Планета Земля 3 / Planet Earth III [S01] (2023) BDRip-HEVC 1080p | L2 27.53 GB ↑ 0 ↓ 0
2023-11-23 magnet Олег Немиров - Земля! Визит родственников (2023) MP3 310.57 MB ↑ 0 ↓ 0
2023-11-18 magnet Ансамбль Христа Спасителя и Мать Сыра Земля - Отрицательный Отбор (2023) MP3 118.23 MB ↑ 0 ↓ 0

Кто качает (только для создателя раздачи и модераторов): Локальные пиры отсутствуют

Комментарии


Зарегистрируйтесь чтобы добавить комментарий
Торрент клиент
byTorrent - программа для загрузки торрент-файлов.

Скачать byTorrent.exe (1,5 МБ)

Скачать byTorrent.zip (0,6 МБ)

Поддержи torrent.by
российских рублей
(300 российских рублей это 4$)

Обратная связь rss

End game ©