↑↓torrent.by
Поиск
Логин:  Регистрация
Пароль:

Ведьма. Деревня проклятых / Perempuan Tanah Jahanam / Impetigore (2019) BDRip 1080p | D

download Скачать торрент-файл   magnet Магнитная ссылка Размер: 12.75 GB Добавлен: 2024-05-03 17:00
Пиры будут получены из сети DHT
Последний сидер был замечен 2024-05-07 20:36
Информация о фильме Название: Ведьма. Деревня проклятых Оригинальное название: Perempuan Tanah Jahanam / Impetigore Год выхода: 2019 Жанр: ужасы, детектив Режиссер: Джоко Анвар / Joko Anwar В ролях: Тара Басро, Марисса Анита, Арио Баю, Кристин Хаким, Асмара Абигаил, Кики Нарендра, Африан Арис, Зидни Хаким, Фарадина Муфти, Абдуррахман Ариф О фильме: Пережив нападение странного человека с огромным ножом, Майя решает уехать из города в деревню, где у неё, как выяснилось, имеется большой дом. Девушка воспитывалась тётей и ничего не знала о родителях. Прибыв на место, Майя с подругой сразу находят фамильный особняк, который местные обходят стороной, и решают в нём переночевать. Кроме того, на близлежащем кладбище обнаруживается подозрительно большое количество детских могил. Страна: Индонезия, Корея Южная Студия: BASE Entertainment, CJ Entertainment, Ivanhoe Pictures, Rapi Films Продолжительность: 01:47:31 Перевод: Профессиональный (дублированный) Leff Sound Русская аудиодорожка подогнана без пересжатия звука. Файл Качество: BDRip 1080p Видео: 1920x804 at 24 fps, MPEG-4 AVC, ~15600 kbps avg Аудио 1: 48 kHz, E-AC3, 3/2 (L,C,R,l,r) + LFE ch, ~384 kbps avg | Russian Аудио 2: 48 kHz, E-AC3, 3/2 (L,C,R,l,r) + LFE ch, ~1024 kbps avg | Indonesian Субтитры: русские (Forced), английские Семпл
[+] Скриншоты
[+] MediaInfo General Unique ID : 100051434056885312924035583551613026578 (0x4B45348D6B9F3F76872EBFD38EADC112) Complete name :Perempuan.Tanah.Jahanam.2019.BDRip.1080p-AsiaOne-Kyle.mkv Format : Matroska Format version : Version 4 File size : 12.8 GiB Duration : 1 h 47 min Overall bit rate : 17.0 Mb/s Frame rate : 24.000 FPS Encoded date : 2024-05-03 09:20:34 UTC Writing application : mkvmerge v84.0 ('Sleeper') 64-bit Writing library : libebml v1.4.5 + libmatroska v1.7.1 Cover : Yes Attachments : cover.jpg Video ID : 1 Format : AVC Format/Info : Advanced Video Codec Format profile : High@L4.1 Format settings : CABAC / 5 Ref Frames Format settings, CABAC : Yes Format settings, Reference : 5 frames Codec ID : V_MPEG4/ISO/AVC Duration : 1 h 47 min Bit rate : 15.6 Mb/s Width : 1 920 pixels Height : 804 pixels Display aspect ratio : 2.39:1 Frame rate mode : Constant Frame rate : 24.000 FPS Color space : YUV Chroma subsampling : 4:2:0 Bit depth : 8 bits Scan type : Progressive Bits/(Pixel*Frame) : 0.420 Stream size : 11.7 GiB (92%) Writing library : x264 core 164 r3179+50 a40a721 tMod@devel Encoding settings : cabac=1 / ref=5 / deblock=1:-3:-3 / analyse=0x3:0x133 / me=umh / subme=11 / psy=1 / fade_compensate=0.00 / psy_rd=1.00:0.00 / mixed_ref=1 / me_range=32 / chroma_me=1 / trellis=2 / 8x8dct=1 / cqm=0 / deadzone=21,11 / fast_pskip=0 / chroma_qp_offset=-2 / threads=25 / lookahead_threads=4 / sliced_threads=0 / nr=0 / decimate=0 / interlaced=0 / bluray_compat=0 / constrained_intra=0 / fgo=0 / bframes=9 / b_pyramid=2 / b_adapt=2 / b_bias=0 / direct=3 / weightb=1 / open_gop=0 / weightp=2 / keyint=250 / keyint_min=24 / scenecut=40 / intra_refresh=0 / rc=crf / mbtree=0 / crf=16.5000 / qcomp=0.65 / qpmin=0:0:0 / qpmax=69:69:69 / qpstep=4 / ip_ratio=1.30 / pb_ratio=1.20 / aq=3:0.75 / aq-sensitivity=10.00 / aq-factor=1.00:1.00:1.00:1.00 / aq2=0 / aq3=0 / zones=19932,30168,crf=15.4/38592,46002,crf=15.1/50663,56632,crf=15.4/80206,93979,crf=15.3/98363,119476,crf=15.3/119206,120249,crf=15.3/120749,146642,crf=15.5/150983,154840,crf=22 Default : Yes Forced : No Color range : Limited Color primaries : BT.709 Transfer characteristics : BT.709 Matrix coefficients : BT.709 Audio #1 ID : 2 Format : E-AC-3 Format/Info : Enhanced AC-3 Commercial name : Dolby Digital Plus Codec ID : A_EAC3 Duration : 1 h 47 min Bit rate mode : Constant Bit rate : 384 kb/s Channel(s) : 6 channels Channel layout : L R C LFE Ls Rs Sampling rate : 48.0 kHz Frame rate : 31.250 FPS (1536 SPF) Compression mode : Lossy Stream size : 295 MiB (2%) Title : Russian Language : Russian Service kind : Complete Main Default : Yes Forced : No Audio #2 ID : 3 Format : E-AC-3 Format/Info : Enhanced AC-3 Commercial name : Dolby Digital Plus Codec ID : A_EAC3 Duration : 1 h 47 min Bit rate mode : Constant Bit rate : 1 024 kb/s Channel(s) : 6 channels Channel layout : L R C LFE Ls Rs Sampling rate : 48.0 kHz Frame rate : 31.250 FPS (1536 SPF) Compression mode : Lossy Stream size : 788 MiB (6%) Title : Indonesian Language : Indonesian Service kind : Complete Main Default : No Forced : No Text #1 ID : 4 Format : UTF-8 Codec ID : S_TEXT/UTF8 Codec ID/Info : UTF-8 Plain Text Duration : 14 min 3 s Bit rate : 2 b/s Frame rate : 0.006 FPS Count of elements : 5 Stream size : 252 Bytes (0%) Title : Forced Language : Russian Default : Yes Forced : No Text #2 ID : 5 Format : UTF-8 Codec ID : S_TEXT/UTF8 Codec ID/Info : UTF-8 Plain Text Duration : 1 h 43 min Bit rate : 36 b/s Frame rate : 0.139 FPS Count of elements : 866 Stream size : 27.3 KiB (0%) Title : English Language : English Default : No Forced : No Menu 00:00:00.000 : en:Глава 01 00:08:59.582 : en:Глава 02 00:15:13.916 : en:Глава 03 00:25:52.625 : en:Глава 04 00:35:00.333 : en:Глава 05 00:44:27.583 : en:Глава 06 00:56:12.708 : en:Глава 07 01:02:59.291 : en:Глава 08 01:10:26.666 : en:Глава 09 01:19:53.625 : en:Глава 10 01:29:13.207 : en:Глава 11 01:35:47.457 : en:Глава 12 01:47:21.250 : en:Глава 13
[+] Сравнение с исходником
[+] x264 log x264 : frame I:864 Avg QP:11.75 size:301747 x264 : frame P:29458 Avg QP:13.83 size:145462 x264 : frame B:124518 Avg QP:14.69 size: 64332 x264 : consecutive B-frames: 1.2% 1.5% 6.2% 10.3% 12.4% 47.0% 8.4% 6.1% 5.9% 1.0% x264 : encoded 154840 frames, 23.40 fps, 15569.58 kb/s, 11975 MB
Релиз от: by Kyle

Всего файлов в раздаче: 1 
Perempuan.Tanah.Jahanam.2019.BDRip.1080p-AsiaOne-Kyle.mkv12.75 GB

Похожие раздачи по запросу - Ведьма
Вчера magnet Ведьма и чудовище / Majo to Yajuu [S01] (2024) WEBRip 1080p | AniLibria 17.68 GB ↑ 0 ↓ 0
2024-05-04 magnet Ведьма. Деревня проклятых / Perempuan Tanah Jahanam / Impetigore (2019) BDRip-AVC от DoMiNo & селезень | D 1.44 GB ↑ 0 ↓ 0
2024-05-04 magnet Ведьма. Деревня проклятых / Perempuan Tanah Jahanam / Impetigore (2019) BDRemux 1080p | D 20.35 GB ↑ 0 ↓ 0
2024-05-03 magnet Ведьма. Деревня проклятых / Perempuan Tanah Jahanam / Impetigore (2019) BDRip 720p | D 6.90 GB ↑ 0 ↓ 0
2024-05-02 magnet Ведьма и чудовище / Majo to Yajuu [S01] (2024) WEBRip 1080p by VLDeshka | D, L | StudioBand, DreamCast 7.85 GB ↑ 0 ↓ 0
2024-04-03 magnet Ведьма и чудовище / Majo to Yajuu [01x01-11 из 12] (2024) WEBRip 1080p by VLDeshka | D, L | StudioBand, DreamCast 6.93 GB ↑ 0 ↓ 0
2022-11-06 magnet Эксперимент «Ведьма» / Ведьма 2 / Manyeo 2 / The Witch: Part 2 - The Other One (2022) BDRip от MegaPeer | D 1.46 GB ↑ 0 ↓ 0

Комментарии


Зарегистрируйтесь чтобы добавить комментарий
Торрент клиент
byTorrent - программа для загрузки торрент-файлов.

Скачать byTorrent.exe (1,5 МБ)

Скачать byTorrent.zip (0,6 МБ)

Поддержи torrent.by
российских рублей
(300 российских рублей это 4$)

Обратная связь rss

End game ©