↑↓torrent.by
Поиск
Логин:  Регистрация
Пароль:

Адам и Ева (2024) WEB-DLRip-AVC от New-Team

download Скачать торрент-файл   magnet Магнитная ссылка Размер: 1.46 GB Добавлен: 2024-05-03 17:00
Пиры будут получены из сети DHT
Последний сидер был замечен вчера в 22:08
Адам и Ева Год выпуска: 2024 Выпущено: Россия / Централ Партнершип, Продюсерский центр «ГОРАД», Okko Studios Жанр: комедия, мелодрама, фантастика Режиссер: Илья Фарфель В ролях: Дмитрий Чеботарёв, Полина Максимова, Николай Добрынин, Валентина Мазунина О фильме: Марина и Виктор — единственные оставшиеся люди в огромном городе, возможно, на всей планете. После того, как герои худо-бедно обустроили быт, перед ними встал куда более серьезный вопрос — экзистенциальный. Как возродить человечество? Особенно если учесть, что они не нравятся друг другу. Продолжительность: 01:30:39 Перевод: Не требуется Субтитры: Отсутствуют Раздача от: Автор релиза: JNS82. Формат: MKV Качество: WEB-DLRip-AVC Видео: MPEG-4 AVC, 1024x428, 1926 Кбит/с, (2,40:1), 24,000 fps Аудио #1: 48 kHz, AC3 Dolby Digital, 3/2 (L,C,R,l,r) + LFE ch, ~ 384 kbps | RUS |
[+] MediaInfoОбщее Уникальный идентификатор : 143949126786771119111347255385927532168 (0x6C4B97E76792C758B18F0BC8C8493E88) Полное имя : D:TorrentsAdam.and.Eve2024.WEB-DLRip-AVC_от New-Team_by_JNS82.mkv Формат : Matroska Версия формата : Version 4 Размер файла : 1,46 Гбайт Продолжительность : 1 ч. 30 м. Общий поток : 2 310 Кбит/сек Название фильма : Adam.and.Eve2024.WEB-DLRip-AVC_от New-Team_by_JNS82 Дата кодирования : UTC 2024-05-03 07:54:00 Программа кодирования : mkvmerge v79.0 ('Funeral Pyres') 64-bit Библиотека кодирования : libebml v1.4.4 + libmatroska v1.7.1 Видео Идентификатор : 1 Формат : AVC Формат/Информация : Advanced Video Codec Профиль формата : High@L4.1 Настройки формата : CABAC / 12 Ref Frames Параметр CABAC формата : Да Параметр RefFrames формата : 12 кадров Идентификатор кодека : V_MPEG4/ISO/AVC Продолжительность : 1 ч. 30 м. Битрейт : 1 926 Кбит/сек Ширина : 1 024 пикселя Высота : 428 пикселей Соотношение сторон : 2,40:1 Режим частоты кадров : Постоянный Частота кадров : 24,000 кадра/сек Цветовое пространство : YUV Субдискретизация насыщенности : 4:2:0 Битовая глубина : 8 бит Тип развёртки : Прогрессивная Бит/(Пиксели*Кадры) : 0.183 Размер потока : 1,22 Гбайт (83%) Библиотека кодирования : x264 core 164 r3156+57M NewTeam t_mod_New Настройки программы : cabac=1 / ref=12 / deblock=1:-2:-2 / analyse=0x3:0x113 / me=umh / subme=10 / psy=1 / fade_compensate=0.00 / psy_rd=1.05:0.03 / mixed_ref=1 / me_range=32 / chroma_me=1 / trellis=2 / 8x8dct=1 / cqm=0 / deadzone=21,11 / fast_pskip=0 / chroma_qp_offset=-3 / threads=13 / lookahead_threads=3 / sliced_threads=0 / nr=0 / decimate=0 / interlaced=0 / bluray_compat=0 / constrained_intra=0 / fgo=0 / bframes=10 / b_pyramid=2 / b_adapt=2 / b_bias=0 / direct=3 / weightb=1 / open_gop=0 / weightp=2 / keyint=240 / keyint_min=23 / scenecut=40 / intra_refresh=0 / rc_lookahead=60 / rc=2pass / mbtree=0 / bitrate=1926 / ratetol=1.0 / qcomp=0.60 / qpmin=0:0:0 / qpmax=69:69:69 / qpstep=5 / cplxblur=20.0 / qblur=0.5 / vbv_maxrate=50000 / vbv_bufsize=62500 / nal_hrd=none / filler=0 / ip_ratio=1.35 / pb_ratio=1.30 / aq=1:1.00 / aq-sensitivity=10.00 / aq-factor=1.00:1.00:1.00 / aq2=0 / aq3=0 Язык : English Default : Да Forced : Нет Цветовой диапазон : Limited Основные цвета : BT.709 Характеристики трансфера : BT.709 Коэффициенты матрицы : BT.709 Аудио Идентификатор : 2 Формат : AC-3 Формат/Информация : Audio Coding 3 Коммерческое название : Dolby Digital Идентификатор кодека : A_AC3 Продолжительность : 1 ч. 30 м. Вид битрейта : Постоянный Битрейт : 384 Кбит/сек Каналы : 6 каналов Channel layout : L R C LFE Ls Rs Частота : 48,0 КГц Частота кадров : 31,250 кадров/сек (1536 SPF) Метод сжатия : С потерями Размер потока : 249 Мбайт (17%) Заголовок : OKKO Язык : Russian Service kind : Complete Main Default : Да Forced : Нет

Всего файлов в раздаче: 1 
Adam.and.Eve2024.WEB-DLRip-AVC_от New-Team_by_JNS82.mkv1.46 GB

Похожие раздачи по запросу - Адам
2024-05-04 magnet Адам и Ева (2024) WEB-DLRip 745.65 MB ↑ 0 ↓ 0
2024-05-04 magnet Адам и Ева (2024) WEB-DL 1080p от ExKinoRay 3.72 GB ↑ 1 ↓ 1
2024-05-03 magnet Адам и Ева (2024) WEB-DLRip 720p от DoMiNo & селезень | ОККО 1.76 GB ↑ 0 ↓ 0
2024-05-03 magnet Адам и Ева (2024) WEB-DL 720p 1.95 GB ↑ 0 ↓ 0
2024-05-03 magnet Адам и Ева (2024) WEB-DLRip от ELEKTRI4KA 1.46 GB ↑ 0 ↓ 0
2024-05-03 magnet Адам и Ева (2024) WEB-DL 1080p 3.48 GB ↑ 1 ↓ 0
2022-03-11 magnet Проект «Адам» / Имя наше - Адам / The Adam Project (2022) WEB-DL 1080p от селезень | Netflix 4.21 GB ↑ 1 ↓ 0

Комментарии


Зарегистрируйтесь чтобы добавить комментарий
Торрент клиент
byTorrent - программа для загрузки торрент-файлов.

Скачать byTorrent.exe (1,5 МБ)

Скачать byTorrent.zip (0,6 МБ)

Поддержи torrent.by
российских рублей
(300 российских рублей это 4$)

Обратная связь rss

End game ©