↑↓torrent.by
Поиск
Логин:  Регистрация
Пароль:

Боско / Bosco (2024) WEB-DLRip от New-Team | D | Soundmasters

download Скачать торрент-файл   magnet Магнитная ссылка Размер: 1.46 GB Добавлен: 2024-05-04 05:00
Пиры будут получены из сети DHT
Последний сидер был замечен 2024-05-05 10:55
Боско / Bosco Год выпуска: 2024 Выпущено: США / Fluke Studios Evergreen, Valley Productions Жанр: триллер, драма Режиссер: Николас Мануэль Пино / Nicholas Manuel Pino В ролях: Обри Джозеф, Томас Джейн, Тео Росси, Никки Блонски, Тайриз Гибсон, Вивика Эй Фокс, Джим О'Хейр, Камден Рэндалл, Брэндон Роджерс, Ди Си Янг Флай, Джон Льюис, Теренс Розмор О фильме: Куонтей Боско Адамс был ребенком смышленым, но чересчур добрым для той среды, где он родился. Отец, желая хоть как-то подготовить сына к жесткой реальности, учил его выживанию на улице. Судьба же подкинула Боско более серьезное испытание: когда ему было 20 лет, суд приговорил его к 35-ти годам тюрьмы за незначительное нарушение. Даже в условиях строгого режима Адамс не теряет надежду на свободу, спасаясь от ужасов заключения перепиской и редкими встречами с девушкой Тэмми, которая ответила на его объявление в газете. Но когда Боско узнает, что стал отцом, то даже толстые тюремные стены не могут удержать его в стремлении увидеть свою дочь. Продолжительность: 01:44:02 Перевод: Дублированный (неофициальный) | Soundmasters Субтитры: нет. Раздача от: Автор релиза: JNS82. Формат: AVI Качество: WEB-DLRip Видео: 704x384 (1.85:1), 23.976 fps, XviD MPEG-4 ~ 1811 kbps avg, 0.279 bit/pixel, build 74 Аудио: 48 kHz, AC3 Dolby Digital, 2/0 (L,R) ch, ~ 192 kbps | RUS |
[+] MediaInfoОбщее Полное имя : D:TorrentsBosco.2024.WEB-DLRip_от New-Team_by_JNS82.avi Формат : AVI Формат/Информация : Audio Video Interleave Размер файла : 1,46 Гбайт Продолжительность : 1 ч. 44 м. Общий поток : 2 012 Кбит/сек Программа кодирования : VirtualDubMod 1.5.10.2 (build 2540/release) Библиотека кодирования : VirtualDubMod build 2540/release Видео Идентификатор : 0 Формат : MPEG-4 Visual Профиль формата : Advanced Simple@L5 Настройки формата : BVOP1 / Custom Matrix Параметр BVOP формата : 1 Параметр QPel формата : Нет Параметр GMC формата : Без точки перехода Параметр матрицы формата : Выборочная Идентификатор кодека : XVID Идентификатор кодека/Подсказка : XviD Продолжительность : 1 ч. 44 м. Битрейт : 1 811 Кбит/сек Ширина : 704 пикселя Высота : 384 пикселя Соотношение сторон : 1,85:1 Частота кадров : 23,976 (24000/1001) кадра/сек Цветовое пространство : YUV Субдискретизация насыщенности : 4:2:0 Битовая глубина : 8 бит Тип развёртки : Прогрессивная Метод сжатия : С потерями Бит/(Пиксели*Кадры) : 0.279 Размер потока : 1,32 Гбайт (90%) Библиотека кодирования : XviD 73 Аудио Идентификатор : 1 Формат : AC-3 Формат/Информация : Audio Coding 3 Коммерческое название : Dolby Digital Идентификатор кодека : 2000 Продолжительность : 1 ч. 44 м. Вид битрейта : Постоянный Битрейт : 192 Кбит/сек Каналы : 2 канала Channel layout : L R Частота : 48,0 КГц Частота кадров : 31,250 кадров/сек (1536 SPF) Метод сжатия : С потерями Размер потока : 143 Мбайт (10%) Выравнивание : Разделение по промежуткам Продолжительность промежутка : 42 мс. (1,00 видеокадр) Время предзагрузки промежутка : 500 мс. Service kind : Complete Main

Всего файлов в раздаче: 1 
Bosco.2024.WEB-DLRip_от New-Team_by_JNS82.avi1.46 GB

Похожие раздачи по запросу - Боско
2024-05-04 magnet Боско / Bosco (2024) WEB-DL 1080p от New-Team | D | Soundmasters 5.78 GB ↑ 0 ↓ 1
2024-05-04 magnet Боско / Bosco (2024) WEB-DLRip 720p от DoMiNo & селезень | D | Soundmasters 1.90 GB ↑ 0 ↓ 0

Комментарии


Зарегистрируйтесь чтобы добавить комментарий
Торрент клиент
byTorrent - программа для загрузки торрент-файлов.

Скачать byTorrent.exe (1,5 МБ)

Скачать byTorrent.zip (0,6 МБ)

Поддержи torrent.by
российских рублей
(300 российских рублей это 4$)

Обратная связь rss

End game ©