↑↓torrent.by
Поиск
Логин:  Регистрация
Пароль:

Любовь истекает кровью / Love Lies Bleeding (2024) WEB-DL 1080p от New-Team | D, L | Soundmasters

download Скачать торрент-файл   magnet Магнитная ссылка Размер: 7.68 GB Добавлен: 2024-05-04 05:00
Пиры будут получены из сети DHT
Последний сидер был замечен 2024-05-04 12:49
Любовь истекает кровью / Love Lies Bleeding Год выпуска: 2024 Выпущено: Великобритания, США / A24, Film4, Escape Plan Productions, Lobo Films Жанр: триллер, криминал, мелодрама Режиссер: Роуз Гласс / Rose Glass В ролях: Кэти М. О’Брайен, Кристен Стюарт, Эд Харрис, Джена Мэлоун, Анна Барышников, Дэйв Франко, Элдон Джонс, Кэтрин Хоун, Орион Кэррингтон, Мэттью Блад-Смит О фильме: Любовь, разжигающая насилие и затягивающая в криминал. Менеджерка тренажерного зала влюбляется в амбициозную бодибилдерку, которая в погоне за своей мечтой направляется в Вегас. Их страсть выливается в опасное приключение, которое затянет их обоих в сети преступных связей. Продолжительность: 01:43:52 Перевод: #1: Дублированный (неофициальный) | Soundmasters #2: Любительский (многоголосый, закадровый) | Soundmasters | 18 + Субтитры: Английские (full, SDH) Раздача от: Автор релиза: JNS82. Формат: MKV Качество: WEB-DL 1080p | AMZN Видео: MPEG-4 AVC, 1920x800, 9171 Кбит/с, (2,40:1), 23,976 fps Аудио #1: 48 kHz, AC3 Dolby Digital, 2/0 (L,R) ch, ~ 192 kbps | RUS | DUB Аудио #2: 48 kHz, AC3 Dolby Digital, 3/2 (L,C,R,l,r) + LFE ch, ~ 448 kbps | RUS | MVO Аудио #3: 48 kHz, E-AC3 JOC Dolby Digital, 3/2 (L,C,R,l,r) + LFE ch, ~ 768 kbps | ENG |
[+] MediaInfoОбщее Уникальный идентификатор : 261198858806369241224212571516353742463 (0xC481120336044BC7DF83C39206C1867F) Полное имя : D:TorrentsLove.Lies.Bleeding.2024.1080p.AMZN_ от New-Team.mkv Формат : Matroska Версия формата : Version 4 Размер файла : 7,68 Гбайт Продолжительность : 1 ч. 43 м. Общий поток : 10,6 Мбит/сек Название фильма : Love.Lies.Bleeding.2024.1080p.AMZN_ от New-Team Дата кодирования : UTC 2024-05-03 10:22:47 Программа кодирования : mkvmerge v79.0 ('Funeral Pyres') 64-bit Библиотека кодирования : libebml v1.4.4 + libmatroska v1.7.1 Видео Идентификатор : 1 Формат : AVC Формат/Информация : Advanced Video Codec Профиль формата : High@L4 Настройки формата : CABAC / 4 Ref Frames Параметр CABAC формата : Да Параметр RefFrames формата : 4 кадра Идентификатор кодека : V_MPEG4/ISO/AVC Продолжительность : 1 ч. 43 м. Вид битрейта : Постоянный Битрейт : 9 171 Кбит/сек Номинальный битрейт : 10 000 Кбит/сек Ширина : 1 920 пикселей Высота : 800 пикселей Соотношение сторон : 2,40:1 Режим частоты кадров : Постоянный Частота кадров : 23,976 (24000/1001) кадра/сек Цветовое пространство : YUV Субдискретизация насыщенности : 4:2:0 Битовая глубина : 8 бит Тип развёртки : Прогрессивная Бит/(Пиксели*Кадры) : 0.249 Размер потока : 6,65 Гбайт (87%) Язык : English Default : Да Forced : Нет Цветовой диапазон : Limited Основные цвета : BT.709 Характеристики трансфера : BT.709 Коэффициенты матрицы : BT.709 Аудио #1 Идентификатор : 2 Формат : AC-3 Формат/Информация : Audio Coding 3 Коммерческое название : Dolby Digital Идентификатор кодека : A_AC3 Продолжительность : 1 ч. 43 м. Вид битрейта : Постоянный Битрейт : 192 Кбит/сек Каналы : 2 канала Channel layout : L R Частота : 48,0 КГц Частота кадров : 31,250 кадров/сек (1536 SPF) Метод сжатия : С потерями Размер потока : 143 Мбайт (2%) Заголовок : DUB - Soundmasters Язык : Russian Service kind : Complete Main Default : Да Forced : Нет Аудио #2 Идентификатор : 3 Формат : AC-3 Формат/Информация : Audio Coding 3 Коммерческое название : Dolby Digital Идентификатор кодека : A_AC3 Продолжительность : 1 ч. 43 м. Вид битрейта : Постоянный Битрейт : 448 Кбит/сек Каналы : 6 каналов Channel layout : L R C LFE Ls Rs Частота : 48,0 КГц Частота кадров : 31,250 кадров/сек (1536 SPF) Метод сжатия : С потерями Размер потока : 333 Мбайт (4%) Заголовок : MVO - Soundmasters | 18 + Язык : Russian Service kind : Complete Main Default : Нет Forced : Нет Аудио #3 Идентификатор : 4 Формат : E-AC-3 JOC Формат/Информация : Enhanced AC-3 with Joint Object Coding Коммерческое название : Dolby Digital Plus with Dolby Atmos Идентификатор кодека : A_EAC3 Продолжительность : 1 ч. 43 м. Вид битрейта : Постоянный Битрейт : 768 Кбит/сек Каналы : 6 каналов Channel layout : L R C LFE Ls Rs Частота : 48,0 КГц Частота кадров : 31,250 кадров/сек (1536 SPF) Метод сжатия : С потерями Задержка видео : 20 мс. Размер потока : 571 Мбайт (7%) Заголовок : Original Язык : English Service kind : Complete Main Default : Нет Forced : Нет Complexity index : 16 Number of dynamic objects : 15 Bed channel count : 1 канал Bed channel configuration : LFE Текст #1 Идентификатор : 5 Формат : UTF-8 Идентификатор кодека : S_TEXT/UTF8 Идентификатор кодека/Информация : UTF-8 Plain Text Продолжительность : 1 ч. 34 м. Битрейт : 44 бит/сек Count of elements : 1173 Размер потока : 31,0 Кбайт (0%) Заголовок : Язык : English Default : Нет Forced : Нет Текст #2 Идентификатор : 6 Формат : UTF-8 Идентификатор кодека : S_TEXT/UTF8 Идентификатор кодека/Информация : UTF-8 Plain Text Продолжительность : 1 ч. 43 м. Битрейт : 58 бит/сек Count of elements : 1662 Размер потока : 44,4 Кбайт (0%) Заголовок : Язык : English Default : Нет Forced : Нет Меню 00:00:00.000 : en:Chapter 1 00:09:34.949 : en:Chapter 2 00:19:44.309 : en:Chapter 3 00:29:39.362 : en:Chapter 4 00:39:23.238 : en:Chapter 5 00:49:04.736 : en:Chapter 6 00:59:21.936 : en:Chapter 7 01:10:45.036 : en:Chapter 8 01:19:27.350 : en:Chapter 9 01:29:57.313 : en:Chapter 10 01:38:09.431 : en:Chapter 11

Всего файлов в раздаче: 1 
Love.Lies.Bleeding.2024.1080p.AMZN_ от New-Team.mkv7.68 GB

Похожие раздачи по запросу - Любовь
Сегодня magnet Запретная любовь / Tainted Love (1998) DVDRip | P2 1.37 GB ↑ 0 ↓ 0
2024-05-20 magnet Запретная любовь / The Edge of Love (2008) BDRip-AVC от msltel | P, P2 3.51 GB ↑ 0 ↓ 0
2024-05-14 magnet Любовь и сёрфинг / Под настилом / Under the Boardwalk (1988) BDRip | P 1.46 GB ↑ 0 ↓ 0
2024-05-13 magnet Полина Аронсон - Любовь: сделай сам. Как мы стали менеджерами своих чувств (2020) FB2, EPUB, PDF 3.63 MB ↑ 0 ↓ 0
2024-05-12 magnet Mama Russia - Любовь, комсомол и роботы (2024) FLAC 345.90 MB ↑ 0 ↓ 0
2024-05-08 magnet Любовь на миллион / The Modelizer / Hong Kong Love Story (2023) WEB-DLRip от New-Team | D 1.46 GB ↑ 0 ↓ 0
2024-05-03 magnet Вечная любовь [S01] (2024) WEB-DLRip от Generalfilm | КПК 741.54 MB ↑ 0 ↓ 0

Комментарии


Зарегистрируйтесь чтобы добавить комментарий
Торрент клиент
byTorrent - программа для загрузки торрент-файлов.

Скачать byTorrent.exe (1,5 МБ)

Скачать byTorrent.zip (0,6 МБ)

Поддержи torrent.by
российских рублей
(300 российских рублей это 4$)

Обратная связь rss

End game ©