↑↓torrent.by
Поиск
Логин:  Регистрация
Пароль:

Спящие псы / Sleeping Dogs (2024) WEB-DL 1080p от New-Team | D, P2, L

download Скачать торрент-файл   magnet Магнитная ссылка Размер: 6.75 GB Добавлен: 2024-05-04 05:00
Пиры будут получены из сети DHT
Последний сидер был замечен 2024-06-20 22:16
Спящие псы / Sleeping Dogs Год выпуска: 2024 Выпущено: Австралия, США / Film Victoria, G2 Dispatch, Gala Media Capital, Gramercy Park Media, Highland Film Group (HFG), JaiD7 Pictures, Nickel City Pictures, Screen Australia Жанр: детектив, триллер, криминал Режиссер: Адам Купер Adam Cooper В ролях: Расселл Кроу, Томми Флэнаган, Карен Гиллан, Мартон Чокаш, Элизабет Блэкмор, Томас Эм Райт, Люси-Роуз Леонард, Линн Гилмартин, Гарри Гринвуд, Келли Грейсон, Джейн Харбер, Зара Майклз, Минг-Чжу Хии, Саймон Мэйден, Пачаро Мзембе, Паула Арунделл, Райан О'Гради, Джаспер Бэгг, Кэмерон Леонард О фильме: После лечения провалов в памяти бывший детектив по расследованию убийств пересматривает дело десятилетней давности, связанное с жестоким убийством профессора колледжа. Продолжительность: 01:51:34 Преревод (ы): #1: Дублированный (неофициальный) | Soundmasters #2: Любительский (многоголосый, закадровый) | Soundmasters 18+ #3: Профессиональный (двухголосый, закадровый) | ViruseProject | 18+ Субтитры: Русские (forced, full (ViruseProject)), английские Раздача от: Автор релиза: JNS82. Формат: MKV Качество: WEB-DL 1080p | AMZN Видео: MPEG-4 AVC, Кбит/с, 1920x800 Аудио #1: AC3, 2 ch, 192 Кбит/с | RUS | DUB Аудио #2: AC3, 6 ch, 384 Кбит/с | RUS | MVO Аудио #3: AC3, 6 ch, 448 Кбит/с | RUS | DVO Аудио #4: E-AC3, 6 ch, 640 Кбит/с | ENG
[+] MediaInfoОбщее Уникальный идентификатор : 238064481477489323836045746039702487836 (0xB3198D25BFB4879F57C9750575C9031C) Полное имя : D:TorrentsSleeping.Dogs.2024.1080p.AMZN_от New-Team.mkv Формат : Matroska Версия формата : Version 4 Размер файла : 6,75 Гбайт Продолжительность : 1 ч. 51 м. Общий поток : 8 668 Кбит/сек Название фильма : Sleeping.Dogs.2024.1080p.AMZN_от New-Team Дата кодирования : UTC 2024-05-03 11:33:27 Программа кодирования : mkvmerge v79.0 ('Funeral Pyres') 64-bit Библиотека кодирования : libebml v1.4.4 + libmatroska v1.7.1 Видео Идентификатор : 1 Формат : AVC Формат/Информация : Advanced Video Codec Профиль формата : High@L4 Настройки формата : CABAC / 4 Ref Frames Параметр CABAC формата : Да Параметр RefFrames формата : 4 кадра Идентификатор кодека : V_MPEG4/ISO/AVC Продолжительность : 1 ч. 51 м. Вид битрейта : Постоянный Битрейт : 7 001 Кбит/сек Номинальный битрейт : 10 000 Кбит/сек Ширина : 1 920 пикселей Высота : 800 пикселей Соотношение сторон : 2,40:1 Режим частоты кадров : Постоянный Частота кадров : 23,976 (24000/1001) кадра/сек Цветовое пространство : YUV Субдискретизация насыщенности : 4:2:0 Битовая глубина : 8 бит Тип развёртки : Прогрессивная Бит/(Пиксели*Кадры) : 0.190 Размер потока : 5,46 Гбайт (81%) Язык : English Default : Да Forced : Нет Цветовой диапазон : Limited Основные цвета : BT.709 Характеристики трансфера : BT.709 Коэффициенты матрицы : BT.709 Аудио #1 Идентификатор : 2 Формат : AC-3 Формат/Информация : Audio Coding 3 Коммерческое название : Dolby Digital Идентификатор кодека : A_AC3 Продолжительность : 1 ч. 51 м. Вид битрейта : Постоянный Битрейт : 192 Кбит/сек Каналы : 2 канала Channel layout : L R Частота : 48,0 КГц Частота кадров : 31,250 кадров/сек (1536 SPF) Метод сжатия : С потерями Размер потока : 153 Мбайт (2%) Заголовок : DUB - Soundmasters Язык : Russian Service kind : Complete Main Default : Да Forced : Нет Аудио #2 Идентификатор : 3 Формат : AC-3 Формат/Информация : Audio Coding 3 Коммерческое название : Dolby Digital Идентификатор кодека : A_AC3 Продолжительность : 1 ч. 51 м. Вид битрейта : Постоянный Битрейт : 384 Кбит/сек Каналы : 6 каналов Channel layout : L R C LFE Ls Rs Частота : 48,0 КГц Частота кадров : 31,250 кадров/сек (1536 SPF) Метод сжатия : С потерями Размер потока : 306 Мбайт (4%) Заголовок : MVO - Soundmasters | 18+ Язык : Russian Service kind : Complete Main Default : Нет Forced : Нет Аудио #3 Идентификатор : 4 Формат : AC-3 Формат/Информация : Audio Coding 3 Коммерческое название : Dolby Digital Идентификатор кодека : A_AC3 Продолжительность : 1 ч. 51 м. Вид битрейта : Постоянный Битрейт : 448 Кбит/сек Каналы : 6 каналов Channel layout : L R C LFE Ls Rs Частота : 48,0 КГц Частота кадров : 31,250 кадров/сек (1536 SPF) Метод сжатия : С потерями Размер потока : 358 Мбайт (5%) Заголовок : DVO - ViruseProject | 18+ Язык : Russian Service kind : Complete Main Default : Нет Forced : Нет Аудио #4 Идентификатор : 5 Формат : E-AC-3 Формат/Информация : Enhanced AC-3 Коммерческое название : Dolby Digital Plus Идентификатор кодека : A_EAC3 Продолжительность : 1 ч. 51 м. Вид битрейта : Постоянный Битрейт : 640 Кбит/сек Каналы : 6 каналов Channel layout : L R C LFE Ls Rs Частота : 48,0 КГц Частота кадров : 31,250 кадров/сек (1536 SPF) Метод сжатия : С потерями Размер потока : 511 Мбайт (7%) Заголовок : Original Язык : English Service kind : Complete Main Default : Нет Forced : Нет Текст #1 Идентификатор : 6 Формат : UTF-8 Идентификатор кодека : S_TEXT/UTF8 Идентификатор кодека/Информация : UTF-8 Plain Text Продолжительность : 1 ч. 33 м. Битрейт : 2 бит/сек Count of elements : 35 Размер потока : 1,86 Кбайт (0%) Заголовок : Язык : Russian Default : Да Forced : Нет Текст #2 Идентификатор : 7 Формат : UTF-8 Идентификатор кодека : S_TEXT/UTF8 Идентификатор кодека/Информация : UTF-8 Plain Text Продолжительность : 1 ч. 40 м. Битрейт : 83 бит/сек Count of elements : 1400 Размер потока : 61,5 Кбайт (0%) Заголовок : Язык : Russian Default : Нет Forced : Нет Текст #3 Идентификатор : 8 Формат : UTF-8 Идентификатор кодека : S_TEXT/UTF8 Идентификатор кодека/Информация : UTF-8 Plain Text Продолжительность : 1 ч. 46 м. Битрейт : 55 бит/сек Count of elements : 1425 Размер потока : 43,6 Кбайт (0%) Заголовок : Язык : English Default : Нет Forced : Нет Текст #4 Идентификатор : 9 Формат : UTF-8 Идентификатор кодека : S_TEXT/UTF8 Идентификатор кодека/Информация : UTF-8 Plain Text Продолжительность : 1 ч. 51 м. Битрейт : 63 бит/сек Count of elements : 1766 Размер потока : 52,1 Кбайт (0%) Заголовок : Язык : English Default : Нет Forced : Нет Меню 00:00:00.000 : en:Scene 1 01:44:20.791 : en:End Credits

Всего файлов в раздаче: 1 
Sleeping.Dogs.2024.1080p.AMZN_от New-Team.mkv6.75 GB

Похожие раздачи по запросу - Спящие
2024-05-16 magnet Спящие псы / Sleeping Dogs (2024) WEB-DLRip от MegaPeer | D | Мосфильм-Мастер 1.46 GB ↑ 1 ↓ 0
2024-05-16 magnet Спящие псы / Sleeping Dogs (2024) WEB-DLRip-AVC от DoMiNo & селезень | D | Локализованная версия 1.44 GB ↑ 1 ↓ 1
2024-05-16 magnet Спящие псы / Sleeping Dogs (2024) WEB-DL 1080p от селезень | D | Локализованная версия 5.12 GB ↑ 0 ↓ 0
2024-05-15 magnet Спящие псы / Sleeping Dogs (2024) WEB-DL 1080p от ELEKTRI4KA | D, P, L 6.90 GB ↑ 0 ↓ 0
2024-05-04 magnet Спящие псы / Sleeping Dogs (2024) WEB-DLRip-AVC от New-Team | D, L | Soundmasters 1.85 GB ↑ 0 ↓ 0
2024-04-19 magnet Спящие псы / Sleeping Dogs (2024) WEB-DLRip от DoMiNo & селезень | L | Soundmasters 1.45 GB ↑ 0 ↓ 0
2024-04-11 magnet Спящие псы / Sleeping Dogs (2024) WEB-DLRip 720p от DoMiNo & селезень | P2 | ViruseProject 3.02 GB ↑ 0 ↓ 0

Комментарии


Зарегистрируйтесь чтобы добавить комментарий
Торрент клиент
byTorrent - программа для загрузки торрент-файлов.

Скачать byTorrent.exe (1,5 МБ)

Скачать byTorrent.zip (0,6 МБ)

Поддержи torrent.by
российских рублей
(300 российских рублей это 4$)

Обратная связь rss

End game ©