↑↓torrent.by
Поиск
Логин:  Регистрация
Пароль:

Tank - R&B Money: The Vault [24-bit Hi-Res] (2024) FLAC

download Скачать торрент-файл   magnet Магнитная ссылка Размер: 801.07 MB Добавлен: 2024-05-04 11:00
Пиры будут получены из сети DHT
Последний сидер был замечен 2024-05-17 20:29
Название: R&B Money: The Vault Исполнитель: Tank Год: 2024 Жанр: Soul, Funk, RnB Издатель (лейбл): R&B Money - Atlantic Records Продолжительность: 01:11:18 Формат/Кодек: FLAC Тип рипа: Tracks Битрейт аудио: Lossless Разрядность: 24 Bit/48 kHz
[+] Трек-лист 01. R&B Money (00:01:29) 02. Before We Get Started (feat. Fabolous) (00:02:56) 03. When You Dance (00:03:09) 04. Home (00:03:42) 05. Come Inside (00:03:21) 06. No Limit (feat. Alex Isley) (00:03:27) 07. Slow (feat. J Valentine) (00:03:20) 08. Morning (feat. Vedo) (00:02:58) 09. Lonely (00:02:54) 10. Can't Let It Show (00:03:37) 11. See Through Love (feat. Chris Brown) (00:03:50) 12. Spoil Her Alert (00:03:26) 13. I Deserve (00:03:49) 14. War (00:03:13) 15. Too Late (00:03:46) 16. Make Sure (feat. Feather) (00:03:27) 17. Wanna Love You (00:02:23) 18. Lets Take A Ride (feat. Rotimi And Tverse) (00:04:13) 19. It’s Nothing (00:03:10) 20. Awesome (feat. Blaq Tuxedo) (00:03:11) 21. Regular (00:03:30) 22. Summer Killa (00:02:27)
[+] DRM foobar2000 1.5.5 / Замер динамического диапазона (DR) 1.1.1 ------------------------------------------------------------------------------- Анализ: Tank / R&B Money: The Vault -------------------------------------------------------------------------------- DR Пики RMS Продолжительность трека -------------------------------------------------------------------------------- DR7 -0.10 дБ -10.94 дБ 1:29 01-R&B Money DR7 -0.10 дБ -9.52 дБ 3:09 03-When You Dance DR9 -0.07 дБ -12.67 дБ 3:42 04-Home DR9 -0.09 дБ -11.33 дБ 3:27 06-No Limit (feat. Alex Isley) DR7 -0.08 дБ -10.59 дБ 3:20 07-Slow (feat. J Valentine) DR7 -0.06 дБ -8.85 дБ 2:58 08-Morning (feat. Vedo) DR7 -0.07 дБ -9.45 дБ 3:50 11-See Through Love (feat. Chris Brown) DR8 -0.09 дБ -9.67 дБ 3:26 12-Spoil Her Alert DR9 -0.10 дБ -10.41 дБ 3:13 14-War DR8 -0.09 дБ -9.50 дБ 3:46 15-Too Late DR5 -0.08 дБ -8.35 дБ 3:27 16-Make Sure (feat. Feather) DR6 -0.08 дБ -8.13 дБ 4:13 18-Lets Take A Ride (feat. Rotimi And Tverse) DR7 -0.08 дБ -9.42 дБ 3:10 19-It’s Nothing DR4 -1.17 дБ -7.13 дБ 3:11 20-Awesome (feat. Blaq Tuxedo) DR6 -0.09 дБ -8.11 дБ 3:30 21-Regular DR7 -0.08 дБ -9.68 дБ 2:27 22-Summer Killa -------------------------------------------------------------------------------- Количество треков: 16 Реальные значения DR: DR7 Частота: 44100 Гц Каналов: 2 Разрядность: 24 Битрейт: 1585 кбит/с Кодек: FLAC ================================================================================ -------------------------------------------------------------------------------- Анализ: Tank / R&B Money: The Vault -------------------------------------------------------------------------------- DR Пики RMS Продолжительность трека -------------------------------------------------------------------------------- DR5 -0.10 дБ -6.36 дБ 2:56 02-Before We Get Started (feat. Fabolous) DR6 -0.10 дБ -7.67 дБ 3:21 05-Come Inside DR5 -0.10 дБ -7.34 дБ 2:54 09-Lonely DR5 -0.20 дБ -7.12 дБ 3:37 10-Can't Let It Show DR4 -0.20 дБ -6.23 дБ 3:49 13-I Deserve DR3 -0.10 дБ -4.68 дБ 2:23 17-Wanna Love You -------------------------------------------------------------------------------- Количество треков: 6 Реальные значения DR: DR5 Частота: 48000 Гц Каналов: 2 Разрядность: 24 Битрейт: 1760 кбит/с Кодек: FLAC ================================================================================
Время раздачи: 24/7 (минимум до появления первых 3-5 скачавших, на раздачи не возвращаюсь) Первое правило участника файлообмена: "Скачал сам - дай скачать другому!"

Всего файлов в раздаче: 23 
01. R&B MONEY.flac15.31 MB
02. Before We Get Started (feat. Fabolous).flac38.55 MB
03. When You Dance.flac34.34 MB
04. Home.flac33.89 MB
05. Come Inside.flac40.31 MB
06. No Limit (feat. Alex Isley).flac35.08 MB
07. Slow (feat. J Valentine).flac34.62 MB
08. Morning (feat. Vedo).flac32.70 MB
09. Lonely.flac34.79 MB
10. Can't Let It Show.flac42.61 MB
Показать все файлы

Комментарии


Зарегистрируйтесь чтобы добавить комментарий
Торрент клиент
byTorrent - программа для загрузки торрент-файлов.

Скачать byTorrent.exe (1,5 МБ)

Скачать byTorrent.zip (0,6 МБ)

Поддержи torrent.by
российских рублей
(300 российских рублей это 4$)

Обратная связь rss

End game ©