↑↓torrent.by
Поиск
Логин:  Регистрация
Пароль:

Хроники Спайдервика / The Spiderwick Chronicles [S01] (2024) WEB-DLRip-AVC | КПК | HDrezka Studio

download Скачать торрент-файл   magnet Магнитная ссылка Размер: 1.63 GB Добавлен: 2024-05-04 11:00
Пиры будут получены из сети DHT
Последний сидер был замечен 2024-05-04 11:00
Информация о фильме Название: Хроники Спайдервика Оригинальное название: The Spiderwick Chronicles Год выхода: 2024 Жанр: фэнтези, боевик, триллер, драма, приключения, семейный Режиссер: Кэт Койро, Арон Эли Колейт, Майкл Патрик Джэнн, ... В ролях: Лион Дэниелс, Джой Брайант, Ной Коттрелл, Микала Ли, Джек Дилан Грейзер, Кристиан Слэйтер, Аливия Элин Линд, Хантер Диллон, Момона Тамада, Мелани Баррош О фильме: Близнецы Джаред и Саймон и их сестра Мэллори вместе со своей мамой Хелен переезжают в старинное поместье. Вскоре дети находят путь в волшебную страну. Страна: США Студия: 20th Century Fox Television, 20th Television, Gotham Group Продолжительность: 8 x ~00:45:00 Перевод: Профессиональный (многоголосый, закадровый) | HDrezka Studio Файл Формат: MP4 Качество: WEB-DLRip 360p (исх. WEB-DL 1080p) * Видео: AVC, 640x268 (2.39:1), at 23.976 fps, 522-615 kbps Аудио: AAC LC SBR (HE-AAC), 48.0 kHz, 2 ch, 64 kbps Субтитры: Russian (forced softsub), English (forced hardsub) * за исходник спасибо APTEM1804
[+] MediaInfoGeneral Complete name : The.Spiderwick.Chronicles.HDrS.Series/The.Spiderwick.Chronicles.S01E01.WEB-DLRip.mp4 Format : MPEG-4 Format profile : Base Media Codec ID : isom (isom/avc1) File size : 224 MiB Duration : 48 min 56 s Overall bit rate mode : Variable Overall bit rate : 639 kb/s Encoded date : UTC 2024-05-01 06:44:39 Tagged date : UTC 2024-05-01 06:44:39 Video ID : 1 Format : AVC Format/Info : Advanced Video Codec Format profile : High@L3.2 Format settings : CABAC / 12 Ref Frames Format settings, CABAC : Yes Format settings, RefFrames : 12 frames Codec ID : avc1 Codec ID/Info : Advanced Video Coding Duration : 48 min 56 s Bit rate : 572 kb/s Maximum bit rate : 2 384 kb/s Width : 640 pixels Height : 268 pixels Display aspect ratio : 2.40:1 Frame rate mode : Constant Frame rate : 23.976 (24000/1001) FPS Color space : YUV Chroma subsampling : 4:2:0 Bit depth : 8 bits Scan type : Progressive Bits/(Pixel*Frame) : 0.139 Stream size : 200 MiB (90%) Title : Welcome to Spiderwick Writing library : x264 core 133 r2334 a3ac64b Encoding settings : cabac=1 / ref=12 / deblock=1:-1:-1 / analyse=0x3:0x113 / me=umh / subme=10 / psy=1 / psy_rd=1.00:0.00 / mixed_ref=1 / me_range=24 / chroma_me=1 / trellis=2 / 8x8dct=1 / cqm=0 / deadzone=21,11 / fast_pskip=0 / chroma_qp_offset=-2 / threads=6 / lookahead_threads=1 / sliced_threads=0 / nr=0 / decimate=1 / interlaced=0 / bluray_compat=0 / constrained_intra=0 / bframes=10 / b_pyramid=2 / b_adapt=2 / b_bias=0 / direct=1 / weightb=1 / open_gop=0 / weightp=2 / keyint=240 / keyint_min=23 / scenecut=40 / intra_refresh=0 / rc=crf / mbtree=0 / crf=17.5 / qcomp=0.55 / qpmin=0 / qpmax=69 / qpstep=4 / ip_ratio=1.40 / pb_ratio=1.20 / aq=1:1.00 Language : English Encoded date : UTC 2024-05-01 06:44:39 Tagged date : UTC 2024-05-01 06:45:02 Color range : Limited Color primaries : BT.709 Transfer characteristics : BT.709 Matrix coefficients : BT.709 Codec configuration box : avcC Audio ID : 2 Format : AAC LC SBR Format/Info : Advanced Audio Codec Low Complexity with Spectral Band Replication Commercial name : HE-AAC Format settings : Explicit Codec ID : mp4a-40-2 Duration : 48 min 56 s Bit rate mode : Variable Bit rate : 64.0 kb/s Maximum bit rate : 79.4 kb/s Channel(s) : 2 channels Channel layout : L R Sampling rate : 48.0 kHz Frame rate : 23.438 FPS (2048 SPF) Compression mode : Lossy Stream size : 22.4 MiB (10%) Title : MVO - HDrezka Studio Language : Russian Encoded date : UTC 2024-05-01 06:45:01 Tagged date : UTC 2024-05-01 06:45:02 Text ID : 3 Format : Timed Text Codec ID : tx3g Duration : 46 min 51 s Bit rate mode : Variable Bit rate : 6 b/s Stream size : 2.00 KiB (0%) Title : forced Language : Russian Forced : No Encoded date : UTC 2024-05-01 06:45:02 Tagged date : UTC 2024-05-01 06:45:02
[+] Скриншоты

Всего файлов в раздаче: 8 
The.Spiderwick.Chronicles.S01E01.WEB-DLRip.mp4223.78 MB
The.Spiderwick.Chronicles.S01E02.WEB-DLRip.mp4185.87 MB
The.Spiderwick.Chronicles.S01E03.WEB-DLRip.mp4235.93 MB
The.Spiderwick.Chronicles.S01E04.WEB-DLRip.mp4223.79 MB
The.Spiderwick.Chronicles.S01E05.WEB-DLRip.mp4203.14 MB
The.Spiderwick.Chronicles.S01E06.WEB-DLRip.mp4198.67 MB
The.Spiderwick.Chronicles.S01E07.WEB-DLRip.mp4172.05 MB
The.Spiderwick.Chronicles.S01E08.WEB-DLRip.mp4225.41 MB

Похожие раздачи по запросу - Хроники
2024-05-15 magnet Heroes of Might and Magic III: Complete / Герои Меча и Магии 3: Полное собрание [v 4.0 + Хроники героев + HD-мод] (1999 - 2001) PC | RePack 835.86 MB ↑ 0 ↓ 0
2024-05-04 magnet Спайдервик: Хроники / The Spiderwick Chronicles (2008) WEB-DLRip-AVC | КПК | D, P | Open Matte 600.91 MB ↑ 0 ↓ 0
2024-05-02 magnet Хроники Спайдервика / The Spiderwick Chronicles [S01] (2024) WEB-DL 1080p от ExKinoRay | P | Red Head Sound, HDRezka Studio 9.44 GB ↑ 0 ↓ 0
2024-04-25 magnet Хроники Спайдервика / The Spiderwick Chronicles [S01] (2024) WEB-DL 1080p от ExKinoRay | P | Red Head Sound, HDRezka Studio 9.07 GB ↑ 0 ↓ 0
2024-04-25 magnet Хроники Спайдервика / The Spiderwick Chronicles [S01] (2024) WEB-DL 1080p от ExKinoRay | P | Red Head Sound, HDRezka Studio 9.01 GB ↑ 0 ↓ 0
2024-04-24 magnet Хроники гармонии: Царства Хаоса / The Harmony Chronicles: Chaos Realms (2024) PC 635.08 MB ↑ 0 ↓ 0
2024-04-23 magnet Хроники Спайдервика / The Spiderwick Chronicles [S01] (2024) WEB-DL 1080p | HDRezka Studio 9.44 GB ↑ 0 ↓ 0

Кто качает (только для создателя раздачи и модераторов): Локальные пиры отсутствуют

Комментарии


Зарегистрируйтесь чтобы добавить комментарий
Торрент клиент
byTorrent - программа для загрузки торрент-файлов.

Скачать byTorrent.exe (1,5 МБ)

Скачать byTorrent.zip (0,6 МБ)

Поддержи torrent.by
российских рублей
(300 российских рублей это 4$)

Обратная связь rss

End game ©