↑↓torrent.by
Поиск
Логин:  Регистрация
Пароль:

Спайдервик: Хроники / The Spiderwick Chronicles (2008) WEB-DLRip-AVC | КПК | D, P | Open Matte

download Скачать торрент-файл   magnet Магнитная ссылка Размер: 600.91 MB Добавлен: 2024-05-04 11:00
Пиры будут получены из сети DHT
Последний сидер был замечен 2024-05-04 11:00
Информация о фильме Название: Спайдервик: Хроники Оригинальное название: The Spiderwick Chronicles Год выхода: 2008 Жанр: фэнтези, приключения, семейный Режиссер: Марк Уотерс В ролях: Фредди Хаймор, Мэри-Луиз Паркер, Ник Нолти, Сара Болджер, Эндрю МакКарти, Джоан Плаурайт, Дэвид Стрэтэйрн, Сет Роген, Мартин Шорт, Джорди Бенаттар О фильме: Когда семейство Грейс переезжает в старый дом, стоящий на окраине, начинают твориться странные вещи. Пытаясь понять, в чем дело, Джаред обнаруживает дневник Артура Спайдервика и открывает невероятную правду о поместье: здесь находится скрытая от глаз таинственная страна, населенная фантастическими созданиями! Стремясь защитить свой секрет, Джаред, его сестра и брат-близнец переживают незабываемые приключения. Страна: США Студия: Paramount Pictures, Nickelodeon Movies, The Kennedy/Marshall Company Продолжительность: 01:35:45 Перевод: Профессиональный (полное дублирование), Профессиональный (многоголосый, закадровый) Файл Формат: MP4 Качество: WEB-DLRip 360p (исх. WEB-DL 1080p | AMZN) * Видео: AVC, 640x360, at 23.976 fps, 730 kbps Аудио 1: AAC+, 48.0 kHz, 2 ch, 72 kbps | DUB — Пифагор Аудио 2: AAC+, 48.0 kHz, 2 ch, 72 kbps | MVO — Кравец Субтитры: none * за исходник спасибо Electrician1974 * Open Matte-версия фильма имеет большее наполнение кадра по сравнению с Blu-ray.
[+] x264 / MediaInfox264 : frame I:1141 Avg QP:20.15 size: 24086 x264 : frame P:36375 Avg QP:22.39 size: 7388 x264 : frame B:100244 Avg QP:24.40 size: 2271 x264 : consecutive B-frames: 3.8% 6.8% 9.2% 41.9% 13.1% 16.6% 3.7% 1.9% 1.6% 0.4% 0.6% 0.1% 0.2% General Complete name : The.Spiderwick.Chronicles.2008.DUB.MVO.Open.Matte.WEB-DLRip.mp4 Format : MPEG-4 Format profile : Base Media Codec ID : isom (isom/avc1) File size : 601 MiB Duration : 1 h 35 min Overall bit rate mode : Variable Overall bit rate : 877 kb/s Encoded date : UTC 2024-05-02 19:23:00 Tagged date : UTC 2024-05-02 19:23:00 Video ID : 1 Format : AVC Format/Info : Advanced Video Codec Format profile : High@L3.2 Format settings : CABAC / 14 Ref Frames Format settings, CABAC : Yes Format settings, RefFrames : 14 frames Codec ID : avc1 Codec ID/Info : Advanced Video Coding Duration : 1 h 35 min Bit rate : 730 kb/s Maximum bit rate : 5 153 kb/s Width : 640 pixels Height : 360 pixels Display aspect ratio : 16:9 Frame rate mode : Constant Frame rate : 23.976 (24000/1001) FPS Color space : YUV Chroma subsampling : 4:2:0 Bit depth : 8 bits Scan type : Progressive Bits/(Pixel*Frame) : 0.132 Stream size : 500 MiB (83%) Title : The Spiderwick Chronicles Writing library : x264 core 133 r2334 a3ac64b Encoding settings : cabac=1 / ref=14 / deblock=1:0:0 / analyse=0x3:0x133 / me=umh / subme=10 / psy=1 / psy_rd=1.00:0.00 / mixed_ref=1 / me_range=32 / chroma_me=1 / trellis=2 / 8x8dct=1 / cqm=0 / deadzone=21,11 / fast_pskip=0 / chroma_qp_offset=-2 / threads=6 / lookahead_threads=1 / sliced_threads=0 / nr=0 / decimate=0 / interlaced=0 / bluray_compat=0 / constrained_intra=0 / bframes=12 / b_pyramid=2 / b_adapt=2 / b_bias=0 / direct=3 / weightb=1 / open_gop=0 / weightp=2 / keyint=240 / keyint_min=23 / scenecut=40 / intra_refresh=0 / rc=2pass / mbtree=0 / bitrate=730 / ratetol=1.0 / qcomp=0.75 / qpmin=0 / qpmax=69 / qpstep=4 / cplxblur=20.0 / qblur=0.5 / ip_ratio=1.20 / pb_ratio=1.30 / aq=2:1.00 Language : English Encoded date : UTC 2024-05-02 19:23:00 Tagged date : UTC 2024-05-02 19:23:18 Color range : Limited Color primaries : BT.709 Transfer characteristics : BT.709 Matrix coefficients : BT.709 Codec configuration box : avcC Audio #1 ID : 2 Format : AAC LC SBR Format/Info : Advanced Audio Codec Low Complexity with Spectral Band Replication Commercial name : HE-AAC Format settings : Explicit Codec ID : mp4a-40-2 Duration : 1 h 35 min Bit rate mode : Variable Bit rate : 72.0 kb/s Maximum bit rate : 116 kb/s Channel(s) : 2 channels Channel layout : L R Sampling rate : 48.0 kHz Frame rate : 23.438 FPS (2048 SPF) Compression mode : Lossy Stream size : 49.3 MiB (8%) Title : DUB - Pifagor Language : Russian Encoded date : UTC 2024-05-02 19:23:11 Tagged date : UTC 2024-05-02 19:23:18 Audio #2 ID : 3 Format : AAC LC SBR Format/Info : Advanced Audio Codec Low Complexity with Spectral Band Replication Commercial name : HE-AAC Format settings : Explicit Codec ID : mp4a-40-2 Duration : 1 h 35 min Bit rate mode : Variable Bit rate : 72.0 kb/s Maximum bit rate : 146 kb/s Channel(s) : 2 channels Channel layout : L R Sampling rate : 48.0 kHz Frame rate : 23.438 FPS (2048 SPF) Compression mode : Lossy Stream size : 49.3 MiB (8%) Title : MVO - Kravec Language : Russian Encoded date : UTC 2024-05-02 19:23:15 Tagged date : UTC 2024-05-02 19:23:18
[+] Скриншоты

Всего файлов в раздаче: 1 
The.Spiderwick.Chronicles.2008.DUB.MVO.Open.Matte.WEB-DLRip.mp4600.91 MB

Кто качает (только для создателя раздачи и модераторов): Локальные пиры отсутствуют

Комментарии


Зарегистрируйтесь чтобы добавить комментарий
Торрент клиент
byTorrent - программа для загрузки торрент-файлов.

Скачать byTorrent.exe (1,5 МБ)

Скачать byTorrent.zip (0,6 МБ)

Поддержи torrent.by
российских рублей
(300 российских рублей это 4$)

Обратная связь rss

End game ©