↑↓torrent.by
Поиск
Логин:  Регистрация
Пароль:

Уилл Трент / Will Trent [02x01-07 из 13] (2024) WEB-DL 1080p от Jaskier | P

download Скачать торрент-файл   magnet Магнитная ссылка Размер: 22.12 GB Добавлен: 2024-05-04 17:00
Пиры будут получены из сети DHT
Последний сидер был замечен 2024-05-06 13:01
Информация о фильме Название: Уилл Трент Оригинальное название: Will Trent Год выхода: 2024 Жанр: драма, криминал Режиссер: Ховард Дойч, Оливер Бокельберг, Патрисия Кардосо В ролях: Рамон Родригес, Эрика Кристенсен, Iantha Richardson, Джейк МакЛафлин, Соня Сон, Дион Смит, Тодд Алан Даркин, Cora Lu Tran, Курт Юе, Кевин Дэниелс О фильме: Специальный агент Уилл Трент в детстве был брошен своими родителями и рос в приёмной семье. Благодаря этой травме он умеет замечать в некоторых преступлениях то, чего не видят другие полицейские. Выехав на очередное дело, он понимает, что в доме было совершено не только убийство, но и похищен ребёнок. Страна: США Студия: 3 Arts Entertainment, Selfish Mermaid, 20th Television Продолжительность: ~00:43:00 Перевод: Профессиональный (многоголосый закадровый) Jaskier Файл Кодек: MKV Качество: WEB-DL 1080p Видео: AVC, 1920x1080 (16:9), 23.976 fps, ~9346 kbps Звук: Аудио 1: Русский, AC-3, 48 kHz, 6 ch, 384 kbps | Jaskier Аудио 2: Английский, E-AC-3, 48 kHz, 6 ch, 640 kbps Субтитры: Английские (SDH) Семпл
[+] MediaInfo General Unique ID : 213256602043671857721073929559882627299 (0xA06FBA421ED5BDA3805E7A2A307878E3) Complete name : E:TorrentWill.Trent.S02.1080p.AMZN.WEB-DL.DDP5.1.H.264-JaskierWill.Trent.S02E01.Me.Llamo.Will.Trent.1080p.AMZN.WEB-DL.DDP5.1.H.264-Jaskier.mkv Format : Matroska Format version : Version 4 File size : 3.18 GiB Duration : 43 min 3 s Overall bit rate : 10.6 Mb/s Encoded date : UTC 2024-03-01 17:17:57 Writing application : mkvmerge v6.6.0 ('The Edge Of The In Between') built on Dec 1 2013 17:55:00 Writing library : libebml v1.3.0 + libmatroska v1.4.1 Video ID : 1 Format : AVC Format/Info : Advanced Video Codec Format profile : High@L4 Format settings : CABAC / 4 Ref Frames Format settings, CABAC : Yes Format settings, Reference frames : 4 frames Codec ID : V_MPEG4/ISO/AVC Duration : 43 min 3 s Bit rate mode : Constant Bit rate : 9 346 kb/s Nominal bit rate : 10 000 kb/s Width : 1 920 pixels Height : 1 080 pixels Display aspect ratio : 16:9 Frame rate mode : Constant Frame rate : 23.976 (24000/1001) FPS Color space : YUV Chroma subsampling : 4:2:0 Bit depth : 8 bits Scan type : Progressive Bits/(Pixel*Frame) : 0.188 Stream size : 2.81 GiB (88%) Default : Yes Forced : No Color range : Limited Color primaries : BT.709 Transfer characteristics : BT.709 Matrix coefficients : BT.709 Statistics Tags Issue : mkvmerge v81.0 ('Milliontown') 64-bit / mkvmerge v6.6.0 ('The Edge Of The In Between') built on Dec 1 2013 17:55:00 2024-03-01 17:17:57 FromStats_BitRate : 9553500 FromStats_Duration : 00:43:03.289000000 FromStats_FrameCount : 61937 FromStats_StreamSize : 3084931545 Audio #1 ID : 2 Format : AC-3 Format/Info : Audio Coding 3 Commercial name : Dolby Digital Codec ID : A_AC3 Duration : 43 min 3 s Bit rate mode : Constant Bit rate : 384 kb/s Channel(s) : 6 channels Channel layout : L R C LFE Ls Rs Sampling rate : 48.0 kHz Frame rate : 31.250 FPS (1536 SPF) Compression mode : Lossy Stream size : 118 MiB (4%) Title : Jaskier Language : Russian Service kind : Complete Main Default : Yes Forced : No Audio #2 ID : 3 Format : E-AC-3 Format/Info : Enhanced AC-3 Commercial name : Dolby Digital Plus Codec ID : A_EAC3 Duration : 43 min 3 s Bit rate mode : Constant Bit rate : 640 kb/s Channel(s) : 6 channels Channel layout : L R C LFE Ls Rs Sampling rate : 48.0 kHz Frame rate : 31.250 FPS (1536 SPF) Compression mode : Lossy Stream size : 197 MiB (6%) Title : Original Language : English Service kind : Complete Main Default : No Forced : No Statistics Tags Issue : mkvmerge v81.0 ('Milliontown') 64-bit / mkvmerge v6.6.0 ('The Edge Of The In Between') built on Dec 1 2013 17:55:00 2024-03-01 17:17:57 FromStats_BitRate : 640000 FromStats_Duration : 00:43:03.264000000 FromStats_FrameCount : 80727 FromStats_StreamSize : 206661120 Text #1 ID : 4 Format : UTF-8 Codec ID : S_TEXT/UTF8 Codec ID/Info : UTF-8 Plain Text Language : English Default : No Forced : No Statistics Tags Issue : mkvmerge v81.0 ('Milliontown') 64-bit / mkvmerge v6.6.0 ('The Edge Of The In Between') built on Dec 1 2013 17:55:00 2024-03-01 17:17:57 FromStats_BitRate : 102 FromStats_Duration : 00:42:20.054000000 FromStats_FrameCount : 917 FromStats_StreamSize : 32440 Text #2 ID : 5 Format : UTF-8 Codec ID : S_TEXT/UTF8 Codec ID/Info : UTF-8 Plain Text Title : SDH Language : English Default : No Forced : No Statistics Tags Issue : mkvmerge v81.0 ('Milliontown') 64-bit / mkvmerge v6.6.0 ('The Edge Of The In Between') built on Dec 1 2013 17:55:00 2024-03-01 17:17:57 FromStats_BitRate : 109 FromStats_Duration : 00:42:20.054000000 FromStats_FrameCount : 988 FromStats_StreamSize : 34796
[+] Скриншоты
Релиз от: Jaskier

Всего файлов в раздаче: 7 
Will.Trent.S02E01.Me.Llamo.Will.Trent.1080p.AMZN.WEB-DL.DDP5.1.H.264-Jaskier.mkv3.18 GB
Will.Trent.S02E02.Its.the.Work.I.Signed.Up.for.1080p.AMZN.WEB-DL.DDP5.1.H.264-Jaskier.mkv3.15 GB
Will.Trent.S02E03.You.Dont.Have.to.Understand.1080p.AMZN.WEB-DL.DDP5.1.H.264-Jaskier.mkv3.15 GB
Will.Trent.S02E04.Its.Easier.to.Handcuff.a.Human.Being.1080p.AMZN.WEB-DL.DDP5.1.H.264-Jaskie.mkv3.17 GB
Will.Trent.S02E05.Capt.Duke.Wagners.Daughter.1080p.AMZN.WEB-DL.DDP5.1.H.264-Jaskier.mkv3.11 GB
Will.Trent.S02E06.We.Are.Family.1080p.AMZN.WEB-DL.DDP5.1.H.264-Jaskier.mkv3.19 GB
Will.Trent.S02E07.Have.You.Never.Been.To.A.Wedding.1080p.AMZN.WEB-DL.DDP5.1.H.264-Jaskier.mkv3.17 GB

Комментарии


Зарегистрируйтесь чтобы добавить комментарий
Торрент клиент
byTorrent - программа для загрузки торрент-файлов.

Скачать byTorrent.exe (1,5 МБ)

Скачать byTorrent.zip (0,6 МБ)

Поддержи torrent.by
российских рублей
(300 российских рублей это 4$)

Обратная связь rss

End game ©