↑↓torrent.by
Поиск
Логин:  Регистрация
Пароль:

Хитмен. Последнее дело / Knox Goes Away (2023) WEB-DLRip-AVC от New-Team | D | Soundmasters

download Скачать торрент-файл   magnet Магнитная ссылка Размер: 2.02 GB Добавлен: 2024-05-04 17:00
Пиры будут получены из сети DHT
Последний сидер был замечен 2024-05-11 19:33
Хитмен. Последнее дело / Knox Goes Away Год выпуска: 2023 Выпущено: США / Brookstreet Pictures, Sugar23, Three Point Capital Жанр: триллер Режиссер: Майкл Китон / Michael Keaton В ролях: Майкл Китон, Аль Пачино, Марша Гей Харден, Джеймс Марсден, Джоанна Кулиг, Рэй МакКиннон, Дэннис Дуган, Лила Лорен, Сьюзи Накамура, Чад Донелла О фильме: Джон Нокс — профессиональный киллер. Его деяния лежат на душе тяжким грузом, и Нокс планирует уйти в отставку. Однако появление на пороге сына, Майлза — шокированного, в крови, умоляющего помочь ему — меняет все планы. Заручившись поддержкой старого друга Хавьера, Нокс должен разработать сложную схему и запутать преследующую их полицию, чтобы искупить вину и спасти сына, с которым не общался много лет. Ситуацию осложняет то, что у Джона диагностировали быстро развивающуюся форму деменции, и теперь счет времени идет на часы. Продолжительность: 01:54:37 Перевод: Дублированный (неофициальный) | Soundmasters Субтитры: Английские. Раздача от: Автор релиза: JNS82. Формат: MKV Качество: WEB-DLRip-AVC Видео: MPEG-4 AVC, 2335 Кбит/с, (2,000), 1024x512, 23,976 fps Аудио #1: 48 kHz, AC3 Dolby Digital, 2/0 (L,R) ch, ~ 192 kbps | RUS |
[+] MediaInfoОбщее Уникальный идентификатор : 301575675541031918485142974698197650351 (0xE2E15CC66623E8785819DC0CFB248BAF) Полное имя : D:TorrentsKnox.Goes.Away.2023.WEB-DLRip-AVC_от New-Team_by_JNS82.mkv Формат : Matroska Версия формата : Version 4 Размер файла : 2,02 Гбайт Продолжительность : 1 ч. 54 м. Общий поток : 2 524 Кбит/сек Название фильма : Knox.Goes.Away.2023.WEB-DLRip-AVC_от New-Team_by_JNS82 Дата кодирования : UTC 2024-05-03 13:45:46 Программа кодирования : mkvmerge v79.0 ('Funeral Pyres') 64-bit Библиотека кодирования : libebml v1.4.4 + libmatroska v1.7.1 Видео Идентификатор : 1 Формат : AVC Формат/Информация : Advanced Video Codec Профиль формата : High@L4.1 Настройки формата : CABAC / 12 Ref Frames Параметр CABAC формата : Да Параметр RefFrames формата : 12 кадров Идентификатор кодека : V_MPEG4/ISO/AVC Продолжительность : 1 ч. 54 м. Битрейт : 2 335 Кбит/сек Ширина : 1 024 пикселя Высота : 512 пикселей Соотношение сторон : 2,000 Режим частоты кадров : Постоянный Частота кадров : 23,976 (24000/1001) кадра/сек Цветовое пространство : YUV Субдискретизация насыщенности : 4:2:0 Битовая глубина : 8 бит Тип развёртки : Прогрессивная Бит/(Пиксели*Кадры) : 0.186 Размер потока : 1,87 Гбайт (92%) Библиотека кодирования : x264 core 164 r3156+57M NewTeam t_mod_New Настройки программы : cabac=1 / ref=12 / deblock=1:-2:-2 / analyse=0x3:0x133 / me=umh / subme=10 / psy=1 / fade_compensate=0.00 / psy_rd=1.05:0.03 / mixed_ref=1 / me_range=32 / chroma_me=1 / trellis=2 / 8x8dct=1 / cqm=0 / deadzone=21,11 / fast_pskip=0 / chroma_qp_offset=-3 / threads=16 / lookahead_threads=4 / sliced_threads=0 / nr=0 / decimate=0 / interlaced=0 / bluray_compat=0 / constrained_intra=0 / fgo=0 / bframes=10 / b_pyramid=2 / b_adapt=2 / b_bias=0 / direct=3 / weightb=1 / open_gop=0 / weightp=2 / keyint=250 / keyint_min=23 / scenecut=40 / intra_refresh=0 / rc_lookahead=40 / rc=2pass / mbtree=0 / bitrate=2335 / ratetol=1.0 / qcomp=0.60 / qpmin=0:0:0 / qpmax=69:69:69 / qpstep=4 / cplxblur=20.0 / qblur=0.5 / vbv_maxrate=50000 / vbv_bufsize=62500 / nal_hrd=none / filler=0 / ip_ratio=1.40 / pb_ratio=1.30 / aq=1:1.00 / aq-sensitivity=10.00 / aq-factor=1.00:1.00:1.00 / aq2=0 / aq3=0 Default : Да Forced : Нет Аудио Идентификатор : 2 Формат : AC-3 Формат/Информация : Audio Coding 3 Коммерческое название : Dolby Digital Идентификатор кодека : A_AC3 Продолжительность : 1 ч. 54 м. Вид битрейта : Постоянный Битрейт : 192 Кбит/сек Каналы : 2 канала Channel layout : L R Частота : 48,0 КГц Частота кадров : 31,250 кадров/сек (1536 SPF) Метод сжатия : С потерями Размер потока : 157 Мбайт (8%) Заголовок : DUB - Sounmastes Язык : Russian Service kind : Complete Main Default : Да Forced : Нет Текст Идентификатор : 3 Формат : UTF-8 Идентификатор кодека : S_TEXT/UTF8 Идентификатор кодека/Информация : UTF-8 Plain Text Продолжительность : 1 ч. 45 м. Битрейт : 52 бит/сек Count of elements : 1500 Размер потока : 40,9 Кбайт (0%) Заголовок : Язык : English Default : Нет Forced : Нет Меню 00:00:00.000 : en:Scene 01 01:48:36.541 : en:End Credits

Всего файлов в раздаче: 1 
Knox.Goes.Away.2023.WEB-DLRip-AVC_от New-Team_by_JNS82.mkv2.02 GB

Похожие раздачи по запросу - Хитмен
2024-05-11 magnet Хитмен. Последнее дело / Нокс уходит / Knox Goes Away (2023) WEB-DL 1080p от селезень | D | Кинопоиск HD 3.60 GB ↑ 0 ↓ 2
2024-05-07 magnet Хитмен. Последнее дело / Нокс уходит / Knox Goes Away (2023) WEB-DL 1080p | D | Пифагор 7.13 GB ↑ 1 ↓ 0
2024-05-07 magnet Хитмен. Последнее дело / Нокс уходит / Knox Goes Away (2023) WEB-DLRip от MegaPeer | D | Пифагор 1.46 GB ↑ 0 ↓ 0
2024-05-07 magnet Хитмен. Последнее дело / Нокс уходит / Knox Goes Away (2023) WEB-DL 2160р от Scarabey | 4K | SDR | D | Пифагор, Soundmasters 12.67 GB ↑ 0 ↓ 0
2024-05-07 magnet Хитмен. Последнее дело / Нокс уходит / Knox Goes Away (2023) WEB-DLRip 720p от DoMiNo & селезень | D, P | Пифагор, Soundmasters 3.34 GB ↑ 0 ↓ 1
2024-05-07 magnet Хитмен. Последнее дело / Нокс уходит / Knox Goes Away (2023) WEB-DLRip-AVC от ExKinoRay | D | Пифагор 745.89 MB ↑ 0 ↓ 0
2024-05-05 magnet Хитмен. Последнее дело / Knox Goes Away (2023) WEB-DLRip от MegaPeer | D | Soundmasters 1.46 GB ↑ 0 ↓ 1

Комментарии


Зарегистрируйтесь чтобы добавить комментарий
Торрент клиент
byTorrent - программа для загрузки торрент-файлов.

Скачать byTorrent.exe (1,5 МБ)

Скачать byTorrent.zip (0,6 МБ)

Поддержи torrent.by
российских рублей
(300 российских рублей это 4$)

Обратная связь rss

End game ©