↑↓torrent.by
Поиск
Логин:  Регистрация
Пароль:

Гении / Dance First (2023) WEB-DL 1080p | D

download Скачать торрент-файл   magnet Магнитная ссылка Размер: 4.02 GB Добавлен: 2024-05-04 17:00
Пиры будут получены из сети DHT
Последний сидер был замечен 2024-05-09 17:26
Информация о фильме Название: Гении Оригинальное название: Dance First Год выпуска: 2023 Жанр: драма, биография Выпущено: США / 2LE Media, Film Constellation, Proton Cinema Режиссер: Джеймс Марш В ролях: Гэбриел Бирн, Эйдан Гиллен, Брона Галлахер, Максин Пик, Роберт Арамайо, Сандрин Боннер, Фионн О’Ши, Лиза Дуайер Хогг, Кэролайн Бултон, Бэрри О’Коннор Описание: Знакомство двух великих писателей Сэмюэля Беккета и Джеймса Джойса изменит жизни обоих. Два гения — два мира. Удастся ли им сохранить дружбу, или конфликт неизбежен? Продолжительность: 01:40:14 Перевод: Дублированный (Paragraph Media) Субтитры: Русские (forced) Файл Формат: MKV Качество: WEB-DL 1080p Видео: AVC/H.264, 1920x960, ~5000 Kbps Аудио 1: AC3, 6 ch, 384 Kbps - Русский (DUB) Аудио 2: E-AC3, 6 ch, 384 Kbps - Русский (DUB) Релиз от: karfagen1975
[+] MediaInfo:General Unique ID : 187304922464088987674542767290126594329 (0x8CE99DAAFF7A7B8C49B35527E3DA7119) Complete name : Dance.First.2023.WEB-DL.1080p.mkv Format : Matroska Format version : Version 4 File size : 4.02 GiB Duration : 1 h 40 min Overall bit rate : 5 746 kb/s Frame rate : 25.000 FPS Encoded date : 2024-05-04 05:05:32 UTC Writing application : mkvmerge v75.0.0 ('Goliath') 64-bit Writing library : libebml v1.4.4 + libmatroska v1.7.1 Video ID : 1 Format : AVC Format/Info : Advanced Video Codec Format profile : High@L4 Format settings : CABAC / 3 Ref Frames Format settings, CABAC : Yes Format settings, Reference frames : 3 frames Codec ID : V_MPEG4/ISO/AVC Duration : 1 h 40 min Bit rate : 5 000 kb/s Width : 1 920 pixels Height : 960 pixels Display aspect ratio : 2.000 Frame rate mode : Constant Frame rate : 25.000 FPS Color space : YUV Chroma subsampling : 4:2:0 Bit depth : 8 bits Scan type : Progressive Bits/(Pixel*Frame) : 0.109 Stream size : 3.48 GiB (87%) Title : Гении (2023) WEB-DL 1080p Writing library : x264 core 164 r3095 baee400 Encoding settings : cabac=1 / ref=4 / deblock=1:-1:-1 / analyse=0x3:0x133 / me=umh / subme=9 / psy=1 / psy_rd=0.40:1.00 / mixed_ref=1 / me_range=24 / chroma_me=1 / trellis=0 / 8x8dct=1 / cqm=0 / deadzone=21,11 / fast_pskip=1 / chroma_qp_offset=-2 / threads=3 / lookahead_threads=1 / sliced_threads=0 / nr=0 / decimate=1 / interlaced=0 / bluray_compat=0 / stitchable=1 / constrained_intra=0 / bframes=8 / b_pyramid=1 / b_adapt=0 / b_bias=0 / direct=3 / weightb=1 / open_gop=0 / weightp=2 / keyint=75 / keyint_min=38 / scenecut=0 / intra_refresh=0 / rc_lookahead=40 / rc=2pass / mbtree=1 / bitrate=5000 / ratetol=1.0 / qcomp=0.80 / qpmin=1 / qpmax=69 / qpstep=4 / cplxblur=20.0 / qblur=0.5 / vbv_maxrate=7500 / vbv_bufsize=10000 / nal_hrd=none / filler=0 / ip_ratio=1.40 / aq=1:1.00 Language : English Default : Yes Forced : No Color range : Limited Color primaries : BT.709 Transfer characteristics : BT.709 Matrix coefficients : BT.709 Audio #1 ID : 2 Format : AC-3 Format/Info : Audio Coding 3 Commercial name : Dolby Digital Codec ID : A_AC3 Duration : 1 h 40 min Bit rate mode : Constant Bit rate : 384 kb/s Channel(s) : 6 channels Channel layout : L R C LFE Ls Rs Sampling rate : 48.0 kHz Frame rate : 31.250 FPS (1536 SPF) Compression mode : Lossy Stream size : 275 MiB (7%) Title : DUB (Paragraph Media) Language : Russian Service kind : Complete Main Default : No Forced : No Audio #2 ID : 3 Format : E-AC-3 Format/Info : Enhanced AC-3 Commercial name : Dolby Digital Plus Codec ID : A_EAC3 Duration : 1 h 40 min Bit rate mode : Constant Bit rate : 384 kb/s Channel(s) : 6 channels Channel layout : L R C LFE Ls Rs Sampling rate : 48.0 kHz Frame rate : 31.250 FPS (1536 SPF) Compression mode : Lossy Stream size : 275 MiB (7%) Title : DUB (Paragraph Media) Language : Russian Service kind : Complete Main Default : No Forced : No Text ID : 4 Format : UTF-8 Codec ID : S_TEXT/UTF8 Codec ID/Info : UTF-8 Plain Text Duration : 1 h 22 min Bit rate : 2 b/s Frame rate : 0.007 FPS Count of elements : 34 Stream size : 1.35 KiB (0%) Title : Forced Language : Russian Default : Yes Forced : No
[+] Скриншоты
[+] Дополнительные скриншоты:

Всего файлов в раздаче: 1 
Dance.First.2023.WEB-DL.1080p.mkv4.02 GB

Похожие раздачи по запросу - Гении
2024-05-05 magnet Гении / Сначала танцуй / Dance First (2023) WEB-DLRip 720p от DoMiNo & селезень | D | Paragraph Media | Okko 2.03 GB ↑ 0 ↓ 0
2024-05-04 magnet Гении / Dance First (2023) WEB-DL 720p | D 2.51 GB ↑ 0 ↓ 0
2024-05-04 magnet Гении / Сначала танцуй / Dance First (2023) WEB-DLRip от MegaPeer | D 1.46 GB ↑ 0 ↓ 0

Кто качает (только для создателя раздачи и модераторов): Локальные пиры отсутствуют

Комментарии


Зарегистрируйтесь чтобы добавить комментарий
Торрент клиент
byTorrent - программа для загрузки торрент-файлов.

Скачать byTorrent.exe (1,5 МБ)

Скачать byTorrent.zip (0,6 МБ)

Поддержи torrent.by
российских рублей
(300 российских рублей это 4$)

Обратная связь rss

End game ©