↑↓torrent.by
Поиск
Логин:  Регистрация
Пароль:

Легенда озера Холлоу / The Legend of Lake Hollow (2024) WEB-DLRip от New-Team | P2 | ViruseProject

download Скачать торрент-файл   magnet Магнитная ссылка Размер: 1.37 GB Добавлен: 2024-05-04 17:00
Пиры будут получены из сети DHT
Последний сидер был замечен 2024-05-14 14:14
Легенда озера Холлоу / The Legend of Lake Hollow Год выпуска: 2024 Выпущено: США, Penumbra Entertainment Жанр: Ужасы Режиссер: Крис Холло / Chris Hollo В ролях: Джеймс Дэвид Уэст, Кайл Ранкин, Брендан Болд, Лиз Боливер, Мэг Барлоу, Остин Коппс, Уилл Уолдрон, Мика Озер, Лекси Яничек, Дженнифер Уитус О фильме: Группа молодых ребят приезжают в лесную хижину, стоящую на берегу живописного озера. Один — чтобы поработать, остальные — за компанию. Но ни потрудиться, ни отдохнуть у них не получается. В первую же ночь в лесной чаще раздаётся грозное рычание, в окна заглядывают молчаливые незнакомцы, а на снимках, сделанных камерами-ловушками, для чего-то развешанными в окрестностях, виднеются таинственные фигуры. Что же обитает в лесах на берегу озера Холлоу? Неизвестные науке хищники? Призраки? Демоны? Недорогой, практически безбюджетный ужастик, который на фоне остальных из той же категории выглядит достойно. Оператор старается картинкой передать жутковатую атмосферу ночного леса, а неизвестные исполнители достаточно убедительно пугаются мелькающим в тумане теням. Продолжительность: 01:27:51 Перевод: Профессиональный (двухголосый, закадровый) | ViruseProject | 18+ Субтитры: Русские (full (ViruseProject)), английские, Раздача от: Автор релиза: JNS82. Формат: AVI Качество: WEB-DLRip Видео: 720x304 (2.35:1), 23.976 fps, XviD MPEG-4 ~ 2026 kbps avg, 0.386 bit/pixel, build 73 Аудио: 48 kHz, AC3 Dolby Digital, 2/0 (L,R) ch, ~ kbps 192 | RUS |
[+] MediaInfoОбщее Полное имя : D:TorrentsThe.Legend.of.Lake.Hollow.2024.WEB-DLRip_от New-Team_by_JNS82The.Legend.of.Lake.Hollow.2024.WEB-DLRip_от New-Team_by_JNS82.avi Формат : AVI Формат/Информация : Audio Video Interleave Размер файла : 1,37 Гбайт Продолжительность : 1 ч. 27 м. Общий поток : 2 227 Кбит/сек Программа кодирования : VirtualDubMod 1.5.10.2 (build 2540/release) Библиотека кодирования : VirtualDubMod build 2540/release Видео Идентификатор : 0 Формат : MPEG-4 Visual Профиль формата : Advanced Simple@L5 Настройки формата : BVOP1 / Custom Matrix Параметр BVOP формата : 1 Параметр QPel формата : Нет Параметр GMC формата : Без точки перехода Параметр матрицы формата : Выборочная Идентификатор кодека : XVID Идентификатор кодека/Подсказка : XviD Продолжительность : 1 ч. 27 м. Битрейт : 2 026 Кбит/сек Ширина : 720 пикселей Высота : 304 пикселя Соотношение сторон : 2,35:1 Частота кадров : 23,976 (24000/1001) кадра/сек Цветовое пространство : YUV Субдискретизация насыщенности : 4:2:0 Битовая глубина : 8 бит Тип развёртки : Прогрессивная Метод сжатия : С потерями Бит/(Пиксели*Кадры) : 0.386 Размер потока : 1,24 Гбайт (91%) Библиотека кодирования : XviD 73 Аудио Идентификатор : 1 Формат : AC-3 Формат/Информация : Audio Coding 3 Коммерческое название : Dolby Digital Идентификатор кодека : 2000 Продолжительность : 1 ч. 27 м. Вид битрейта : Постоянный Битрейт : 192 Кбит/сек Каналы : 2 канала Channel layout : L R Частота : 48,0 КГц Частота кадров : 31,250 кадров/сек (1536 SPF) Метод сжатия : С потерями Размер потока : 121 Мбайт (9%) Выравнивание : Разделение по промежуткам Продолжительность промежутка : 42 мс. (1,00 видеокадр) Время предзагрузки промежутка : 500 мс. Service kind : Complete Main

Всего файлов в раздаче: 3 
The.Legend.of.Lake.Hollow.2024.WEB-DLRip_от New-Team_by_JNS82.avi1.37 GB
The.Legend.of.Lake.Hollow.2024.WEB-DLRip_от New-Team_by_JNS82_[eng].srt75.87 kB
The.Legend.of.Lake.Hollow.2024.WEB-DLRip_от New-Team_by_JNS82_[rus].srt85.26 kB

Похожие раздачи по запросу - Легенда
2024-05-04 magnet Легенда озера Холлоу / The Legend of Lake Hollow (2024) WEB-DL 1080p | ViruseProject 3.28 GB ↑ 1 ↓ 0
2024-04-26 magnet Прощай, Легенда [01x03] [эфир от 25.04] (2024) WEBRip 1080p от DolgOFF 1.63 GB ↑ 0 ↓ 0
2024-04-16 magnet Тумстоун: Легенда дикого запада / Tombstone (1993) DVDRip-AVC от Leon-masl | P, P2, A | Режиссерская версия 3.01 GB ↑ 0 ↓ 0
2024-03-19 magnet Легенда о пианисте / La leggenda del pianista sull'oceano / The Legend of 1900 (1998) UHD BDRemux 2160p от селезень | 4K | HDR | Dolby Vision Profile 8 | D | Театральная версия 52.55 GB ↑ 0 ↓ 0
2024-03-18 magnet Легенда о Хэй / Легенда о Ло Сяохэе / The Legend of Hei / The Legend of Luo Xiaohei (2019) BDRip 1080p от KORSARS | AniDub 7.02 GB ↑ 0 ↓ 0
2024-03-13 magnet Аватар: Легенда об Аанге / Avatar: The Last Airbender [S01] (2024) WEB-DLRip | LostFilm 1К6.06 GB ↑ 0 ↓ 0
2024-03-13 magnet Аватар: Легенда об Аанге / Avatar: The Last Airbender [S01] (2024) WEB-DL 1080p | D | Red Head Sound 20.29 GB ↑ 0 ↓ 1

Комментарии


Зарегистрируйтесь чтобы добавить комментарий
Торрент клиент
byTorrent - программа для загрузки торрент-файлов.

Скачать byTorrent.exe (1,5 МБ)

Скачать byTorrent.zip (0,6 МБ)

Поддержи torrent.by
российских рублей
(300 российских рублей это 4$)

Обратная связь rss

End game ©