↑↓torrent.by
Поиск
Логин:  Регистрация
Пароль:

Mark Knopfler - The Boy [24Bit, Hi-Res] (2024) FLAC

download Скачать торрент-файл   magnet Магнитная ссылка Размер: 872.79 MB Добавлен: 2024-05-05 05:00
Пиры будут получены из сети DHT
Последний сидер был замечен 2024-05-16 13:11
Mark Knopfler - The Boy Формат Источник записи: Наличие водяных знаков: Нет Год издания: 2024-05-03 Жанр: Rock Издатель-лейбл: A British Grove Records / EMI recording © ℗ Will D. Side Limited, under exclusive licence to Universal Music Operations Limited Продолжительность: 00:21:59 Наличие сканов: Нет Контейнер: FLAC (*.flac) Тип рипа: tracks Разрядность: 24-Bit 192.0 kHz Формат: PCM Количество каналов: 2.0 Треклист: 01. Mr Solomons Said (6:09) 02. The Boy (5:29) 03. All Comers (5:16) 04. Bad Day For A Knife Thrower (4:35)
[+] Лог проверки качества -------------------------------------------------------------------------------- Analyzed: Mark Knopfler / The Boy -------------------------------------------------------------------------------- DR Peak RMS Duration Track -------------------------------------------------------------------------------- DR11 -0.28 dB -14.53 dB 6:09 01-Mr Solomons Said DR11 -1.00 dB -14.92 dB 5:29 02-The Boy DR10 -0.08 dB -12.88 dB 5:16 03-All Comers DR11 -0.02 dB -14.26 dB 4:35 04-Bad Day For A Knife Thrower -------------------------------------------------------------------------------- Number of tracks: 4 Official DR value: DR11 Samplerate: 192000 Hz Channels: 2 Bits per sample: 24 Bitrate: 5581 kbps Codec: FLAC ================================================================================
https://www.markknopfler.com/music/the-boy/

Всего файлов в раздаче: 5 
01 Mr Solomons Said.flac246.20 MB
02 The Boy.flac218.33 MB
03 All Comers.flac221.42 MB
04 Bad Day For A Knife Thrower.flac186.43 MB
folder.jpg406.90 kB

Похожие раздачи по запросу - Mark
2024-04-15 magnet Mark Knopfler - One Deep River [Limited Deluxe Edition 2CD] (2024) FLAC 415.38 MB ↑ 0 ↓ 0
2024-04-14 magnet Mark Knopfler - One Deep River [Deluxe Edition] (2024) MP3 167.50 MB ↑ 0 ↓ 0
2024-04-14 magnet Mark Knopfler - One Deep River [Deluxe Edition] (2024) FLAC 397.68 MB ↑ 0 ↓ 0
2024-04-13 magnet Mark Knopfler - One Deep River [24Bit, Hi-Res] (2024) FLAC 2.04 GB ↑ 0 ↓ 0
2024-01-02 magnet Mark Knopfler And Emmylou Harris - Balcony Of Love [Unofficial Release] (2020) MP3 251.72 MB ↑ 0 ↓ 0
2022-11-26 magnet Mark Knopfler - The Studio Albums 2009 - 2018 [24-bit Hi-Res] (2022) FLAC 6.90 GB ↑ 0 ↓ 0

Кто качает (только для создателя раздачи и модераторов): Локальные пиры отсутствуют

Комментарии


Зарегистрируйтесь чтобы добавить комментарий
Торрент клиент
byTorrent - программа для загрузки торрент-файлов.

Скачать byTorrent.exe (1,5 МБ)

Скачать byTorrent.zip (0,6 МБ)

Поддержи torrent.by
российских рублей
(300 российских рублей это 4$)

Обратная связь rss

End game ©