↑↓torrent.by
Поиск
Логин:  Регистрация
Пароль:

Как удержаться на плаву / Head Above Water (1996) WEB-DLRip 720p от KORSAR | P, A

download Скачать торрент-файл   magnet Магнитная ссылка Размер: 5.33 GB Добавлен: 2024-05-05 05:00
Пиры будут получены из сети DHT
Последний сидер был замечен 2024-05-05 19:15
Название: Как удержаться на плаву Оригинальное название: Head Above Water Год выпуска: 1996 Жанр: Триллер, комедия, детектив Режиссер: Джим Уилсон В ролях: Харви Кейтель, Кэмерон Диаз, Крэйг Шеффер, Билли Зейн, Шэй Даффин О фильме: Очаровательная молодая женщина Натали планирует провести экзотический отпуск на безлюдном побережье со своим новым мужем Джорджем. К несчастью, Натали оказывается предметом вожделения еще двух мужчин, очутившихся на острове — её друга детства Лэнса и бывшего возлюбленного Кента. Оставшись наедине с Кентом, Натали изо всех сил старается быть верной женой, ну а Кент, в свою очередь, прилагает все усилия, чтобы её соблазнить. Однако на следующее утро, Натали уже не до любовных утех, героиня и её ухажер оказываются вовлечены в бесконечную вереницу катастрофических неприятностей. Страна: США Студия: Majestic Films International, Tig Productions Продолжительность: 01:32:10 Перевод: Профессиональный многоголосый, авторский одноголосый Контейнер: MKV Качество: WEB-DLRip 720p Видео: MPEG-4 AVC, 1280x720 (16:9), 7445 kbps, 23.976 fps Аудио 1: Russian: 48 kHz, AC3, 2.0 ch, 192 kbps - MVO, Россия Аудио 2: Russian: 48 kHz, AC3, 2.0 ch, 192 kbps - AVO, А. Алексеев Аудио 3: English: 48 kHz, AC3, 5.1 ch, 448 kbps - Оригинал Субтитры: Английские, немецкие, болгарские, испанские, ... Навигация по главам: Есть Релиз от:
[+] Скриншоты
[+] MediaInfox264 : frame I:844 Avg QP:15.66 size:142108 x264 : frame P:32266 Avg QP:17.91 size: 65141 x264 : frame B:99483 Avg QP:19.65 size: 29371 ======================================= Общее Уникальный идентификатор : 191224982167645532033919973996702471210 (0x8FDC978889CAD336A20B04888170142A) Полное имя : Как.удержаться.на.плаву.1996.WEB-DLRip.720p.KORSAR.mkv Формат : Matroska Версия формата : Version 2 Размер файла : 5,33 Гбайт Продолжительность : 1 ч. 32 м. Общий поток : 8276 Кбит/сек Дата кодирования : UTC 2017-11-20 22:12:59 Программа кодирования : mkvmerge v5.8.0 ('No Sleep / Pillow') built on Sep 2 2012 15:37:04 Библиотека кодирования : libebml v1.2.3 + libmatroska v1.3.0 Видео Идентификатор : 1 Формат : AVC Формат/Информация : Advanced Video Codec Профиль формата : High@L4.1 Настройки формата : CABAC / 9 Ref Frames Параметр CABAC формата : Да Параметр RefFrames формата : 9 кадров Идентификатор кодека : V_MPEG4/ISO/AVC Продолжительность : 1 ч. 32 м. Битрейт : 7445 Кбит/сек Ширина : 1280 пикселей Высота : 720 пикселей Соотношение сторон : 16:9 Режим частоты кадров : Постоянный Частота кадров : 23,976 (24000/1001) кадра/сек Цветовое пространство : YUV Субдискретизация насыщенности : 4:2:0 Битовая глубина : 8 бит Тип развёртки : Прогрессивная Бит/(Пиксели*Кадры) : 0.337 Размер потока : 4,69 Гбайт (88%) Заголовок : Как удержаться на плаву (1996) Библиотека кодирования : x264 core 152 r2851kMod ba24899 Настройки программы : cabac=1 / ref=9 / deblock=1:-3:-2 / analyse=0x3:0x113 / me=umh / subme=11 / psy=1 / fade_compensate=0.00 / psy_rd=1.00:0.00 / mixed_ref=1 / me_range=48 / chroma_me=1 / trellis=2 / 8x8dct=1 / cqm=0 / deadzone=21,11 / fast_pskip=0 / chroma_qp_offset=-2 / threads=6 / lookahead_threads=1 / sliced_threads=0 / nr=0 / decimate=0 / interlaced=0 / bluray_compat=0 / constrained_intra=0 / bframes=16 / b_pyramid=2 / b_adapt=2 / b_bias=0 / direct=3 / weightb=1 / open_gop=0 / weightp=2 / keyint=240 / keyint_min=23 / scenecut=40 / intra_refresh=0 / rc_lookahead=40 / rc=2pass / mbtree=0 / bitrate=7445 / ratetol=1.0 / qcomp=0.60 / qpmin=0 / qpmax=69 / qpstep=4 / cplxblur=20.0 / qblur=0.5 / vbv_maxrate=50000 / vbv_bufsize=62500 / nal_hrd=none / filler=0 / ip_ratio=1.40 / pb_ratio=1.30 / aq=1:1.00 Язык : English Default : Да Forced : Нет Цветовой диапазон : Limited Основные цвета : BT.709 Характеристики трансфера : BT.709 Коэффициенты матрицы : BT.709 Аудио #1 Идентификатор : 2 Формат : AC-3 Формат/Информация : Audio Coding 3 Идентификатор кодека : A_AC3 Продолжительность : 1 ч. 32 м. Вид битрейта : Постоянный Битрейт : 192 Кбит/сек Каналы : 2 канала Расположение каналов : Front: L R Частота : 48,0 КГц Частота кадров : 31,250 кадров/сек (1536 SPF) Битовая глубина : 16 бит Метод сжатия : С потерями Размер потока : 127 Мбайт (2%) Заголовок : MVO | РТР Язык : Russian Default : Да Forced : Нет Аудио #2 Идентификатор : 3 Формат : AC-3 Формат/Информация : Audio Coding 3 Идентификатор кодека : A_AC3 Продолжительность : 1 ч. 32 м. Вид битрейта : Постоянный Битрейт : 192 Кбит/сек Каналы : 2 канала Расположение каналов : Front: L R Частота : 48,0 КГц Частота кадров : 31,250 кадров/сек (1536 SPF) Битовая глубина : 16 бит Метод сжатия : С потерями Размер потока : 127 Мбайт (2%) Заголовок : AVO | А. Алексеев Язык : Russian Default : Нет Forced : Нет Аудио #3 Идентификатор : 4 Формат : AC-3 Формат/Информация : Audio Coding 3 Идентификатор кодека : A_AC3 Продолжительность : 1 ч. 32 м. Вид битрейта : Постоянный Битрейт : 448 Кбит/сек Каналы : 6 каналов Расположение каналов : Front: L C R, Side: L R, LFE Частота : 48,0 КГц Частота кадров : 31,250 кадров/сек (1536 SPF) Битовая глубина : 16 бит Метод сжатия : С потерями Размер потока : 295 Мбайт (5%) Заголовок : Original Язык : English Default : Нет Forced : Нет Текст #1 Идентификатор : 5 Формат : UTF-8 Идентификатор кодека : S_TEXT/UTF8 Идентификатор кодека/Информация : UTF-8 Plain Text Заголовок : Full Язык : English Default : Нет Forced : Нет Текст #2 Идентификатор : 6 Формат : UTF-8 Идентификатор кодека : S_TEXT/UTF8 Идентификатор кодека/Информация : UTF-8 Plain Text Заголовок : Full + Songs Язык : English Default : Нет Forced : Нет Текст #3 Идентификатор : 7 Формат : UTF-8 Идентификатор кодека : S_TEXT/UTF8 Идентификатор кодека/Информация : UTF-8 Plain Text Язык : German Default : Нет Forced : Нет Текст #4 Идентификатор : 8 Формат : UTF-8 Идентификатор кодека : S_TEXT/UTF8 Идентификатор кодека/Информация : UTF-8 Plain Text Язык : Bulgarian Default : Нет Forced : Нет Текст #5 Идентификатор : 9 Формат : UTF-8 Идентификатор кодека : S_TEXT/UTF8 Идентификатор кодека/Информация : UTF-8 Plain Text Язык : Spanish Default : Нет Forced : Нет Текст #6 Идентификатор : 10 Формат : UTF-8 Идентификатор кодека : S_TEXT/UTF8 Идентификатор кодека/Информация : UTF-8 Plain Text Язык : Polish Default : Нет Forced : Нет Текст #7 Идентификатор : 11 Формат : UTF-8 Идентификатор кодека : S_TEXT/UTF8 Идентификатор кодека/Информация : UTF-8 Plain Text Язык : Portuguese Default : Нет Forced : Нет Текст #8 Идентификатор : 12 Формат : UTF-8 Идентификатор кодека : S_TEXT/UTF8 Идентификатор кодека/Информация : UTF-8 Plain Text Язык : Romanian Default : Нет Forced : Нет Текст #9 Идентификатор : 13 Формат : UTF-8 Идентификатор кодека : S_TEXT/UTF8 Идентификатор кодека/Информация : UTF-8 Plain Text Язык : Serbian Default : Нет Forced : Нет Текст #10 Идентификатор : 14 Формат : UTF-8 Идентификатор кодека : S_TEXT/UTF8 Идентификатор кодека/Информация : UTF-8 Plain Text Язык : Slovak Default : Нет Forced : Нет Текст #11 Идентификатор : 15 Формат : UTF-8 Идентификатор кодека : S_TEXT/UTF8 Идентификатор кодека/Информация : UTF-8 Plain Text Язык : Czech Default : Нет Forced : Нет Меню 00:00:00.000 : en:Chapter 01 00:03:41.293 : en:Chapter 02 00:06:10.609 : en:Chapter 03 00:09:41.987 : en:Chapter 04 00:13:41.760 : en:Chapter 05 00:16:59.591 : en:Chapter 06 00:20:43.848 : en:Chapter 07 00:23:14.632 : en:Chapter 08 00:28:53.638 : en:Chapter 09 00:33:41.425 : en:Chapter 10 00:36:53.817 : en:Chapter 11 00:43:13.030 : en:Chapter 12 00:49:04.381 : en:Chapter 13 00:53:48.131 : en:Chapter 14 01:00:48.084 : en:Chapter 15 01:07:06.261 : en:Chapter 16 01:11:27.355 : en:Chapter 17 01:16:09.137 : en:Chapter 18 01:21:13.641 : en:Chapter 19 01:28:38.219 : en:Chapter 20

Всего файлов в раздаче: 1 
Как.удержаться.на.плаву.1996.WEB-DLRip.720p.KORSAR.mkv5.33 GB

Похожие раздачи по запросу - Как
Сегодня magnet Как только сможешь / Any Which Way You Can (1980) BDRip 720p от msltel | P2, A 7.27 GB ↑ 0 ↓ 0
Сегодня magnet Как вода для шоколада / Como agua para chocolate (1992) BDRip-AVC от msltel | P, P2, L1 3.76 GB ↑ 0 ↓ 0
Вчера magnet Евангелион 3.0+1.01: Как-то раз / Evangelion: 3.0+1.01 Thrice Upon a Time (2021) BDRip-HEVC 1080p | D | Swimming cat 11.52 GB ↑ 0 ↓ 0
2024-05-19 magnet Как ни крути - проиграешь / Every Which Way But Loose (1978) BDRip 720p от msltel | P, P2, A 6.87 GB ↑ 0 ↓ 0
2024-05-18 magnet Как ни крути - проиграешь / Every Which Way But Loose (1978) BDRip-AVC от msltel | P, P2, A 4.15 GB ↑ 0 ↓ 0
2024-05-13 magnet Татьяна Литвинова - Сталин жил в нашей квартире: Как травмы наших предков мешают нам жить и что с этим делать (2024) FB2, EPUB, PDF 3.51 MB ↑ 0 ↓ 0
2024-05-13 magnet Полина Аронсон - Любовь: сделай сам. Как мы стали менеджерами своих чувств (2020) FB2, EPUB, PDF 3.63 MB ↑ 0 ↓ 0

Кто качает (только для создателя раздачи и модераторов): Локальные пиры отсутствуют

Комментарии

Жив
При скромном бюджете и минимуме актёров кино получилось великолепное. Из тех, которые можно пересматривать.


Зарегистрируйтесь чтобы добавить комментарий
Торрент клиент
byTorrent - программа для загрузки торрент-файлов.

Скачать byTorrent.exe (1,5 МБ)

Скачать byTorrent.zip (0,6 МБ)

Поддержи torrent.by
российских рублей
(300 российских рублей это 4$)

Обратная связь rss

End game ©