↑↓torrent.by
Поиск
Логин:  Регистрация
Пароль:

Гении / Сначала танцуй / Dance First (2023) WEB-DLRip 720p от DoMiNo & селезень | D | Paragraph Media | Okko

download Скачать торрент-файл   magnet Магнитная ссылка Размер: 2.03 GB Добавлен: 2024-05-05 05:00
Пиры будут получены из сети DHT
Последний сидер был замечен 2024-05-05 05:00
Информация о фильме Название: Гении Оригинальное название: Dance First Год выпуска: 2023 Жанр: драма, биография Режиссер: Джеймс Марш В ролях: Гэбриел Бирн, Эйдан Гиллен, Брона Галлахер, Максин Пик, Роберт Арамайо, Сандрин Боннер, Фионн О’Ши, Лиза Дуайер Хогг, Кэролайн Бултон, Бэрри О’Коннор Описание: Знакомство двух великих писателей Сэмюэля Беккета и Джеймса Джойса изменит жизни обоих. Два гения — два мира. Удастся ли им сохранить дружбу, или конфликт неизбежен? Выпущено: США / 2LE Media, Film Constellation, Proton Cinema Продолжительность: 01:40:14 Перевод: Дублированный | Paragraph Media | Okko Субтитры: Русские (Forced, Full) Файл Формат: Matroska Качество: WEB-DLRip 720p Видео: 1280x640 at 25.000 fps, x264@L4.1, ~2131 kbps Аудио 1: AC3, 6 ch, ~384 kbps - | Русский | Аудио 2: E-AC3, 6 ch, ~384 kbps - | Русский | Формат субтитров: softsub (SRT) ***Рип от: -=DoMiNo=-
[+] M/Ix264 : frame I:1009 Avg QP:15.57 size: 74514 x264 : frame P:23710 Avg QP:17.09 size: 27522 x264 : frame B:125646 Avg QP:19.58 size: 6960 General Unique ID : 213620312694887399137025397146181459034 (0xA0B5C693EFF645DE5C6B52983B585C5A) Complete name : R:Dance.First.2023.DUB.WEB-DLRip.720p.x264.seleZen.mkv Format : Matroska Format version : Version 4 File size : 2.03 GiB Duration : 1 h 40 min Overall bit rate : 2 901 kb/s Frame rate : 25.000 FPS Movie name : Dance.First.2023.DUB.WEB-DLRip.720p.x264.seleZen Encoded date : 2024-05-04 11:04:28 UTC Writing application : mkvmerge v84.0 ('Sleeper') 64-bit Writing library : libebml v1.4.5 + libmatroska v1.7.1 Cover : Yes Attachments : cover.jpg / small_cover.jpg Video ID : 1 Format : AVC Format/Info : Advanced Video Codec Format profile : High@L4.1 Format settings : CABAC / 5 Ref Frames Format settings, CABAC : Yes Format settings, Reference : 5 frames Codec ID : V_MPEG4/ISO/AVC Duration : 1 h 40 min Bit rate : 2 131 kb/s Width : 1 280 pixels Height : 640 pixels Display aspect ratio : 2.000 Frame rate mode : Constant Frame rate : 25.000 FPS Color space : YUV Chroma subsampling : 4:2:0 Bit depth : 8 bits Scan type : Progressive Bits/(Pixel*Frame) : 0.104 Stream size : 1.49 GiB (73%) Title : -=DoMiNo=- Writing library : x264 core 164 r3190 -DoMiNo Encoding settings : cabac=1 / ref=5 / deblock=1:-2:-1 / analyse=0x3:0x133 / me=umh / subme=10 / psy=1 / psy_rd=1.00:0.15 / mixed_ref=1 / me_range=32 / chroma_me=1 / trellis=2 / 8x8dct=1 / cqm=0 / deadzone=21,11 / fast_pskip=0 / chroma_qp_offset=-3 / threads=20 / lookahead_threads=5 / sliced_threads=0 / nr=0 / decimate=1 / interlaced=0 / bluray_compat=0 / constrained_intra=0 / bframes=12 / b_pyramid=2 / b_adapt=2 / b_bias=0 / direct=3 / weightb=1 / open_gop=0 / weightp=2 / keyint=250 / keyint_min=25 / scenecut=40 / intra_refresh=0 / rc_lookahead=60 / rc=crf / mbtree=0 / crf=19.0 / qcomp=0.60 / qpmin=0 / qpmax=69 / qpstep=4 / vbv_maxrate=50000 / vbv_bufsize=62500 / crf_max=0.0 / nal_hrd=none / filler=0 / ip_ratio=1.40 / pb_ratio=1.30 / aq=1:0.90 Language : English Default : Yes Forced : No Color range : Limited Color primaries : BT.709 Transfer characteristics : BT.709 Matrix coefficients : BT.709 Audio #1 ID : 2 Format : AC-3 Format/Info : Audio Coding 3 Commercial name : Dolby Digital Codec ID : A_AC3 Duration : 1 h 40 min Bit rate mode : Constant Bit rate : 384 kb/s Channel(s) : 6 channels Channel layout : L R C LFE Ls Rs Sampling rate : 48.0 kHz Frame rate : 31.250 FPS (1536 SPF) Compression mode : Lossy Stream size : 275 MiB (13%) Title : DUB (Paragraph Media) Language : Russian Service kind : Complete Main Default : Yes Forced : No AC3_metadata cmixlev : -3.0 dB surmixlev : -3 dB Audio #2 ID : 3 Format : E-AC-3 Format/Info : Enhanced AC-3 Commercial name : Dolby Digital Plus Codec ID : A_EAC3 Duration : 1 h 40 min Bit rate mode : Constant Bit rate : 384 kb/s Channel(s) : 6 channels Channel layout : L R C LFE Ls Rs Sampling rate : 48.0 kHz Frame rate : 31.250 FPS (1536 SPF) Compression mode : Lossy Stream size : 275 MiB (13%) Title : DUB (Paragraph Media) Language : Russian Service kind : Complete Main Default : No Forced : No Text #1 ID : 4 Format : UTF-8 Codec ID : S_TEXT/UTF8 Codec ID/Info : UTF-8 Plain Text Duration : 1 h 22 min Bit rate : 2 b/s Frame rate : 0.007 FPS Count of elements : 34 Stream size : 1.35 KiB (0%) Title : Forced Language : Russian Default : No Forced : No Text #2 ID : 5 Format : UTF-8 Codec ID : S_TEXT/UTF8 Codec ID/Info : UTF-8 Plain Text Duration : 1 h 36 min Bit rate : 58 b/s Frame rate : 0.180 FPS Count of elements : 1039 Stream size : 41.3 KiB (0%) Title : Full Language : Russian Default : No Forced : No Menu 00:00:00.000 : en:Chapter 01 00:05:50.000 : en:Chapter 02 00:11:40.000 : en:Chapter 03 00:17:30.000 : en:Chapter 04 00:23:20.000 : en:Chapter 05 00:29:10.000 : en:Chapter 06 00:35:00.000 : en:Chapter 07 00:40:50.000 : en:Chapter 08 00:46:40.000 : en:Chapter 09 00:52:30.000 : en:Chapter 10 00:58:20.000 : en:Chapter 11 01:04:10.000 : en:Chapter 12 01:10:00.000 : en:Chapter 13 01:15:50.000 : en:Chapter 14 01:21:40.000 : en:Chapter 15 01:27:30.000 : en:Chapter 16 01:33:20.000 : en:Chapter 17 01:39:10.000 : en:Chapter 18
Релиз: Присоединяйся к: Кликай на баннеры.

Всего файлов в раздаче: 1 
Dance.First.2023.DUB.WEB-DLRip.720p.x264.seleZen.mkv2.03 GB

Похожие раздачи по запросу - Гении
2024-05-04 magnet Гении / Dance First (2023) WEB-DL 1080p | D 4.02 GB ↑ 0 ↓ 0
2024-05-04 magnet Гении / Dance First (2023) WEB-DL 720p | D 2.51 GB ↑ 0 ↓ 0
2024-05-04 magnet Гении / Сначала танцуй / Dance First (2023) WEB-DLRip от MegaPeer | D 1.46 GB ↑ 0 ↓ 0

Кто качает (только для создателя раздачи и модераторов): Локальные пиры отсутствуют

Комментарии


Зарегистрируйтесь чтобы добавить комментарий
Торрент клиент
byTorrent - программа для загрузки торрент-файлов.

Скачать byTorrent.exe (1,5 МБ)

Скачать byTorrent.zip (0,6 МБ)

Поддержи torrent.by
российских рублей
(300 российских рублей это 4$)

Обратная связь rss

End game ©