↑↓torrent.by
Поиск
Логин:  Регистрация
Пароль:

Круче некуда / Hidden Strike (2023) WEB-DLRip 720p от DoMiNo & селезень | D

download Скачать торрент-файл   magnet Магнитная ссылка Размер: 2.38 GB Добавлен: 2024-05-05 05:00
Пиры будут получены из сети DHT
Последний сидер был замечен 2024-05-20 03:41
Информация о фильме Название: Круче некуда Оригинальное название: Hidden Strike Год выпуска: 2023 Жанр: Боевик, комедия Режиссер: Скотт Во / Scott Vo В ролях: Джеки Чан, Джон Сина, Пилу Асбек, Амадеус Серафини, Макс Хуан, Гун Цзюнь, Ма Ли, Михаэль Колтес, Тим Ман, Кайл Шапиро, Темур Мамисашвили, Рейчел Холоуэй, Чжэньвэй Ван, Марвин Буве О фильме: В будущем битвы за нефть захватили весь мир. Когда команда международных преступников захватывает заложников, чтобы провернуть крупнейшее ограбление, только два человека оказываются в силах остановить их. Это два наемника по разные стороны конфликта, их план совершенно безумен, но они должны прорваться через град пуль и песчаные бури. Даже если терпеть друг друга не могут. Выпущено: Китай, США, XYZ Films, Sparkle Roll Media, Talent International Media, Tencent Pictures Продолжительность: 01:43:13 Перевод: Дублированный | Мосфильм-Мастер Субтитры: Русские (Forced), английские Файл Формат: Matroska Качество: WEB-DLRip 720p | NF Видео: 1280x536 at 24.000 fps, x264@L4.1, ~2411 kbps Аудио 1: AC3, 6 ch, ~448 kbps - | Русский | Аудио 2: AC3, 6 ch, ~448 kbps - | Английский | Формат субтитров: softsub (SRT) ***Рип от: -=DoMiNo=-
[+] M/Ix264 : frame I:1450 Avg QP:18.17 size: 70363 x264 : frame P:39876 Avg QP:20.44 size: 22964 x264 : frame B:107308 Avg QP:22.48 size: 7910 General Unique ID : 266847114329596623893324449056758157075 (0xC8C0E282A68B8B53E7F73871E2FBCF13) Complete name : D:Hidden.Strike.2023.DUB.NF.WEB-DLRip.720p.x264.seleZen.mkv Format : Matroska Format version : Version 4 File size : 2.38 GiB Duration : 1 h 43 min Overall bit rate : 3 307 kb/s Frame rate : 24.000 FPS Movie name : Hidden.Strike.2023.DUB.NF.WEB-DLRip.720p.x264.seleZen Encoded date : 2023-08-24 08:31:58 UTC Writing application : mkvmerge v79.0 ('Funeral Pyres') 64-bit Writing library : libebml v1.4.4 + libmatroska v1.7.1 Cover : Yes Attachments : cover.jpg / small_cover.jpg Video ID : 1 Format : AVC Format/Info : Advanced Video Codec Format profile : High@L4.1 Format settings : CABAC / 5 Ref Frames Format settings, CABAC : Yes Format settings, Reference : 5 frames Codec ID : V_MPEG4/ISO/AVC Duration : 1 h 43 min Bit rate : 2 411 kb/s Width : 1 280 pixels Height : 536 pixels Display aspect ratio : 2.40:1 Frame rate mode : Constant Frame rate : 24.000 FPS Color space : YUV Chroma subsampling : 4:2:0 Bit depth : 8 bits Scan type : Progressive Bits/(Pixel*Frame) : 0.146 Stream size : 1.74 GiB (73%) Title : -=DoMiNo=- Writing library : x264 core 164 r3107+58M ae98796 t_mod_New | by -=DoMiNo=- | X86_64] Encoding settings : cabac=1 / ref=5 / deblock=1:-1:-1 / analyse=0x3:0x133 / me=umh / subme=10 / psy=1 / fade_compensate=0.00 / psy_rd=1.02:0.15 / mixed_ref=1 / me_range=32 / chroma_me=1 / trellis=2 / 8x8dct=1 / cqm=0 / deadzone=21,11 / fast_pskip=0 / chroma_qp_offset=-3 / threads=17 / lookahead_threads=4 / sliced_threads=0 / nr=0 / decimate=1 / interlaced=0 / bluray_compat=0 / constrained_intra=0 / fgo=0 / bframes=12 / b_pyramid=2 / b_adapt=2 / b_bias=0 / direct=3 / weightb=1 / open_gop=0 / weightp=2 / keyint=240 / keyint_min=24 / scenecut=40 / intra_refresh=0 / rc_lookahead=60 / rc=crf / mbtree=0 / crf=20.0000 / qcomp=0.70 / qpmin=0:0:0 / qpmax=69:69:69 / qpstep=4 / vbv_maxrate=50000 / vbv_bufsize=62500 / crf_max=0.0 / nal_hrd=none / filler=0 / ip_ratio=1.37 / pb_ratio=1.20 / aq=1:0.90 / aq-sensitivity=10.00 / aq-factor=1.00:1.00:1.00 / aq2=0 / aq3=0 Language : English Default : Yes Forced : No Audio #1 ID : 2 Format : AC-3 Format/Info : Audio Coding 3 Commercial name : Dolby Digital Codec ID : A_AC3 Duration : 1 h 42 min Bit rate mode : Constant Bit rate : 448 kb/s Channel(s) : 6 channels Channel layout : L R C LFE Ls Rs Sampling rate : 48.0 kHz Frame rate : 31.250 FPS (1536 SPF) Compression mode : Lossy Stream size : 329 MiB (13%) Title : Dub Language : Russian Service kind : Complete Main Default : Yes Forced : No Audio #2 ID : 3 Format : AC-3 Format/Info : Audio Coding 3 Commercial name : Dolby Digital Codec ID : A_AC3 Duration : 1 h 43 min Bit rate mode : Constant Bit rate : 448 kb/s Channel(s) : 6 channels Channel layout : L R C LFE Ls Rs Sampling rate : 48.0 kHz Frame rate : 31.250 FPS (1536 SPF) Compression mode : Lossy Stream size : 331 MiB (14%) Title : Original Language : English Service kind : Complete Main Default : No Forced : No Text #1 ID : 4 Format : UTF-8 Codec ID : S_TEXT/UTF8 Codec ID/Info : UTF-8 Plain Text Duration : 1 h 36 min Bit rate : 6 b/s Frame rate : 0.019 FPS Count of elements : 113 Stream size : 4.39 KiB (0%) Title : Forced Language : Russian Default : No Forced : No Text #2 ID : 5 Format : UTF-8 Codec ID : S_TEXT/UTF8 Codec ID/Info : UTF-8 Plain Text Duration : 1 h 41 min Bit rate : 55 b/s Frame rate : 0.303 FPS Count of elements : 1852 Stream size : 41.5 KiB (0%) Title : English Language : English Default : No Forced : No Text #3 ID : 6 Format : UTF-8 Codec ID : S_TEXT/UTF8 Codec ID/Info : UTF-8 Plain Text Duration : 1 h 37 min Bit rate : 10 b/s Frame rate : 0.054 FPS Count of elements : 316 Stream size : 7.57 KiB (0%) Title : English Language : English Default : No Forced : No Menu 01:41:51.000 : en:End Credits
Релиз: Присоединяйся к: Кликай на баннеры.

Всего файлов в раздаче: 1 
Hidden.Strike.2023.DUB.NF.WEB-DLRip.720p.x264.seleZen.mkv2.38 GB

Похожие раздачи по запросу - Круче
2024-05-05 magnet Круче некуда / Hidden Strike (2023) WEB-DLRip-AVC от DoMiNo & селезень | D 744.42 MB ↑ 0 ↓ 0

Кто качает (только для создателя раздачи и модераторов): Локальные пиры отсутствуют

Комментарии


Зарегистрируйтесь чтобы добавить комментарий
Торрент клиент
byTorrent - программа для загрузки торрент-файлов.

Скачать byTorrent.exe (1,5 МБ)

Скачать byTorrent.zip (0,6 МБ)

Поддержи torrent.by
российских рублей
(300 российских рублей это 4$)

Обратная связь rss

End game ©