↑↓torrent.by
Поиск
Логин:  Регистрация
Пароль:

Годзилла 2: Король монстров / Godzilla: King of the Monsters (2019) BDRip-AVC от DoMiNo | D | Лицензия

download Скачать торрент-файл   magnet Магнитная ссылка Размер: 743.07 MB Добавлен: 2024-05-05 11:00
Пиры будут получены из сети DHT
Последний сидер был замечен 2024-05-06 15:11
Информация о фильме Название: Годзилла 2: Король монстров Оригинальное название: Godzilla: King of the Monsters Год выхода: 2019 Жанр: фантастика, фэнтези, боевик, приключения Режиссер: Майкл Догерти В ролях: Кайл Чандлер, Вера Фармига, Милли Бобби Браун, Кэн Ватанабэ, Цзыи Чжан, Брэдли Уитфорд, Салли Хокинс, Чарльз Дэнс, Томас Миддлдитч, Аиша Хайндс, О`Ши Джексон мл., Дэвид Стрэтэйрн, Энтони Рамос, Элизабет Ладлоу, Джонатан Ховард, Си Си Эйч Паундер, Джо Мортон, Тайлер Крумли, Келли Гарнер О фильме: История рассказывает о героических усилиях криптозоологического агентства «Монарх» по сдерживанию гигантских монстров. В этот раз против могучего Годзиллы выступают Мотра, Родан и ультимативный кайдзю - трёхголовый монстр Кинг Гидора. Когда эти древние суперхищники, со временем превратившиеся в полузабытые мифы, восстают снова, чтобы сойтись в схватке, человечеству остаётся отойти в сторонку и постараться не погибнуть. Страна: США, Япония Студия: Warner Bros., Legendary Entertainment, Toho Company Продолжительность: 02:11:42 Перевод: Дубляж Субтитры: Русские (Форс., Полные), Украинские (Форс), Английский (Полные, SDH), Файл Формат: Matroska Качество: BDRip-AVC | Видео: 720x300 at 23.976 fps, x264, ~724 kbps, 0.140 bpp Аудио: AAC, 2 ch, ~64 kbps - | Русский | - Формат субтитров: softsub (SRT) ***Релиз от: -=DoMiNo=-
[+] M/Ix264 info: frame I:1576 Avg QP:17.96 size: 19230 x264 info: frame P:45710 Avg QP:19.71 size: 7854 x264 info: frame B:142193 Avg QP:21.57 size: 2247 x264 info: consecutive B-frames: 3.8% 4.1% 10.6% 24.0% 18.4% 24.9% 4.9% 3.7% 3.9% 0.6% 0.4% 0.6% General Format : Matroska Format version : Version 4 File size : 743 MiB Duration : 2 h 11 min Overall bit rate : 789 kb/s Movie name : Годзилла 2 -Король монстров.(2009).BDRip-AVC. Encoded date : UTC 2019-09-04 09:58:25 Writing application : mkvmerge v37.0.0 ('Leave It') 64-bit Writing library : libebml v1.3.9 + libmatroska v1.5.2 Attachments : poster / poster Video ID : 1 Format : AVC Format/Info : Advanced Video Codec Format profile : High@L4.1 Format settings : CABAC / 12 Ref Frames Format settings, CABAC : Yes Format settings, Reference : 12 frames Codec ID : V_MPEG4/ISO/AVC Duration : 2 h 11 min Bit rate : 724 kb/s Width : 720 pixels Height : 300 pixels Display aspect ratio : 2.40:1 Frame rate mode : Constant Frame rate : 23.976 (24000/1001) FPS Color space : YUV Chroma subsampling : 4:2:0 Bit depth : 8 bits Scan type : Progressive Bits/(Pixel*Frame) : 0.140 Stream size : 682 MiB (92%) Title : RIP_BY_-=DoMiNo=- Writing library : x264 core 157 r2958 57baac4 Encoding settings : cabac=1 / ref=12 / deblock=1:-2:-2 / analyse=0x3:0x133 / me=umh / subme=11 / psy=1 / psy_rd=1.00:0.00 / mixed_ref=1 / me_range=32 / chroma_me=1 / trellis=2 / 8x8dct=1 / cqm=0 / deadzone=21,11 / fast_pskip=0 / chroma_qp_offset=-2 / threads=6 / lookahead_threads=1 / sliced_threads=0 / nr=0 / decimate=0 / interlaced=0 / bluray_compat=0 / constrained_intra=0 / bframes=11 / b_pyramid=2 / b_adapt=2 / b_bias=0 / direct=3 / weightb=1 / open_gop=0 / weightp=2 / keyint=250 / keyint_min=24 / scenecut=40 / intra_refresh=0 / rc_lookahead=60 / rc=2pass / mbtree=0 / bitrate=724 / ratetol=1.0 / qcomp=0.70 / qpmin=0 / qpmax=69 / qpstep=4 / cplxblur=20.0 / qblur=0.5 / vbv_maxrate=50000 / vbv_bufsize=62500 / nal_hrd=none / filler=0 / ip_ratio=1.40 / pb_ratio=1.30 / aq=3:1.00 Language : English Default : Yes Forced : No Audio ID : 2 Format : AAC LC SBR Format/Info : Advanced Audio Codec Low Complexity with Spectral Band Replication Commercial name : HE-AAC Format settings : Explicit Codec ID : A_AAC-2 Duration : 2 h 11 min Bit rate : 62.7 kb/s Channel(s) : 2 channels Channel layout : L R Sampling rate : 48.0 kHz Frame rate : 23.438 FPS (2048 SPF) Compression mode : Lossy Stream size : 59.1 MiB (8%) Title : DUB_ Language : Russian Default : Yes Forced : No Text #1 ID : 3 Format : UTF-8 Codec ID : S_TEXT/UTF8 Codec ID/Info : UTF-8 Plain Text Duration : 2 h 9 min Bit rate : 4 b/s Count of elements : 66 Stream size : 4.37 KiB (0%) Title : Forced Language : Russian Default : No Forced : Yes Text #2 ID : 4 Format : UTF-8 Codec ID : S_TEXT/UTF8 Codec ID/Info : UTF-8 Plain Text Duration : 2 h 10 min Bit rate : 77 b/s Count of elements : 1372 Stream size : 74.2 KiB (0%) Title : Full Language : Russian Default : Yes Forced : No Text #3 ID : 5 Format : UTF-8 Codec ID : S_TEXT/UTF8 Codec ID/Info : UTF-8 Plain Text Duration : 2 h 9 min Bit rate : 5 b/s Count of elements : 73 Stream size : 4.92 KiB (0%) Title : Forced Language : Ukrainian Default : No Forced : No Text #4 ID : 6 Format : UTF-8 Codec ID : S_TEXT/UTF8 Codec ID/Info : UTF-8 Plain Text Duration : 2 h 10 min Bit rate : 42 b/s Count of elements : 1482 Stream size : 40.9 KiB (0%) Title : Full Language : English Default : No Forced : No Text #5 ID : 7 Format : UTF-8 Codec ID : S_TEXT/UTF8 Codec ID/Info : UTF-8 Plain Text Duration : 2 h 11 min Bit rate : 51 b/s Count of elements : 1857 Stream size : 49.7 KiB (0%) Title : SDH Language : English Default : No Forced : No Menu 00:00:00.000 : :Chapter 1 00:10:53.903 : :Chapter 2 00:18:06.835 : :Chapter 3 00:30:27.325 : :Chapter 4 00:45:18.632 : :Chapter 5 00:54:11.039 : :Chapter 6 01:05:41.646 : :Chapter 7 01:09:31.584 : :Chapter 8 01:19:31.308 : :Chapter 9 01:30:06.234 : :Chapter 10 01:38:36.869 : :Chapter 11 01:49:58.883 : :Chapter 12 01:59:28.828 : :Chapter 13
[+] Скриншоты

Всего файлов в раздаче: 1 
Годзилла 2 -Король монстров.(2009).BDRip-AVC.[-=DoMiNo=-].mkv743.07 MB

Похожие раздачи по запросу - Годзилла
2024-05-19 magnet Годзилла: Минус один / Gojira -1.0 / Godzilla: Minus One (2023) UHD BDRemux 2160p | 4K | HDR10 | Dolby Vision Profile 7 | P, P2, L 87.71 GB ↑ 0 ↓ 1
2024-05-19 magnet Годзилла и Конг: Новая империя / Godzilla x Kong: The New Empire (2024) UHD WEB-DL-HEVC 2160p | 4K | Dolby Vision TV | D, P 21.05 GB ↑ 0 ↓ 2
2024-05-18 magnet Годзилла и Конг: Новая империя / Ґодзілла та Конґ: Нова імперія / Godzilla x Kong: The New Empire (2024) WEB-DL-HEVC 2160p | 4K | SDR | D | UKR 12.70 GB ↑ 0 ↓ 2
2024-05-18 magnet Годзилла и Конг: Новая империя / Godzilla x Kong: The New Empire (2024) UHD WEB-DL-HEVC 2160p | 4K | HDR | Dolby Vision Profile 8 | D, P 21.08 GB ↑ 0 ↓ 5
2024-05-16 magnet Годзилла и Конг: Новая империя / Ґодзілла та Конґ: Нова імперія / Godzilla x Kong: The New Empire (2024) WEB-DL-HEVC 2160p | 4K | HDR | D | UKR 16.69 GB ↑ 0 ↓ 0
2024-05-16 magnet Годзилла и Конг: Новая империя / Godzilla x Kong: The New Empire (2024) WEB-DL 1080p от Jaskier | P 8.11 GB ↑ 0 ↓ 2
2024-05-16 magnet Годзилла и Конг: Новая империя / Ґодзілла та Конґ: Нова імперія / Godzilla x Kong: The New Empire (2024) WEB-DL 1080p | D | UKR 8.47 GB ↑ 0 ↓ 0

Комментарии


Зарегистрируйтесь чтобы добавить комментарий
Торрент клиент
byTorrent - программа для загрузки торрент-файлов.

Скачать byTorrent.exe (1,5 МБ)

Скачать byTorrent.zip (0,6 МБ)

Поддержи torrent.by
российских рублей
(300 российских рублей это 4$)

Обратная связь rss

End game ©