↑↓torrent.by
Поиск
Логин:  Регистрация
Пароль:

Жизнь этого парня / This Boy's Life (1993) BDRip-AVC от DoMiNo | P

download Скачать торрент-файл   magnet Магнитная ссылка Размер: 2.19 GB Добавлен: 2024-05-06 05:00
Пиры будут получены из сети DHT
Последний сидер был замечен 2024-05-06 05:00
Информация о фильме: Название: Жизнь этого парня Оригинальное название: This Boy's Life Год выхода: 1993 Жанр: драма, биография Режиссер: Майкл Кейтон-Джонс В ролях: Леонардо ДиКаприо, Роберт Де Ниро, Эллен Баркин, Джона Блекмен, Элиза Душку, Крис Купер, Карла Гуджино, Зэкари Энсли, Тоби Магуайр, Трейси Эллис О фильме: Муж Кэролайн разводится с ней и женится на богатой женщине. Забрав старшего сына, он уезжает и больше не интересуется проблемами бывшей семьи. Безработная Кэролин берет младшего сына Тоби и отправляется в бесцельную поездку по Америке. Они останавливаются в нескольких городах, где Кэролин старается устроить их жизнь. И однажды судьба сводит ее с Дуайтом, приятным и вежливым человеком. Кэролин, в надежде на то, что он принесет стабильность в их жизнь и поможет поднять Тоби, выходит за него замуж. Но вопреки ее ожиданиям, в дом входит суровый и вспыльчивый человек. При новом «отце семейства», деспоте и тиране, их жизнь превращается в сплошной кошмар. Выпущено: США Продолжительность: 01:54:42 Перевод: профессиональный (многоголосый, закадровый НТВ+) + профессиональный (многоголосый, закадровый VHS) + оригинал (английский) Субтитры: русские, английские Файл: Формат: MKV Качество: BDRip-AVC (источник: This.Boy's.Life.1993.BDRemux.1080p-Grim) Видео: 1026x426, 23.976 fps, High@L4.1, ~2145 kbps Аудио #1: 48 kHz, AC3 Dolby Digital, 2/0 (L,R) ch, ~192 kbps (MVO.NTV+) Аудио #2: 48 kHz, AC3 Dolby Digital, 2/0 (L,R) ch, ~192 kbps (MVO.VHS) Аудио #3: 48 kHz, AC3 Dolby Digital, 2/0 (L,R) ch, ~192 kbps (ENG)
[+] M/IGeneral Unique ID : 264403720093209496470502251358849603736 (0xC6EA4DDF9FE04D89E217D85A88C81898) Complete name : Жизнь этого парня.(1993).BDRIP-AVC..mkv Format : Matroska Format version : Version 4 / Version 2 File size : 2.19 GiB Duration : 1 h 54 min Overall bit rate : 2 728 kb/s Movie name : Жизнь этого парня Deion : Муж Кэролайн разводится с ней и женится на богатой женщине. Забрав старшего сына, он уезжает и больше не интересуется проблемами бывшей семьи. Безработная Кэролин берет младшего сына Тоби и отправляется в бесцельную поездку по Америке. Они останавливаются в нескольких городах, где Кэролин старается устроить их жизнь.И однажды судьба сводит ее с Дуайтом, приятным и вежливым человеком. Кэролин, в надежде на то, что он принесет стабильность в их жизнь и поможет поднять Тоби, выходит за него замуж. Но вопреки ее ожиданиям, в дом входит суровый и вспыльчивый человек. При новом «отце семейства», деспоте и тиране, их жизнь превращается в сплошной кошмар. Attachments : poster.jpg ACTORS : Леонардо ДиКаприо, Роберт Де Ниро, Эллен Баркин, Джона Блекмен, Элиза Душку, Крис Купер, Карла Гуджино, Зэкари Энсли, Тоби Магуайр, Трейси Эллис, Кэти Кинни, Роберт Замероски, Тристан Тейт, Трэвис МакДональд, Ричард Лисс, Майкл Бэколл, Адам Снеллер, Геррит Грэм, Томас Копаче, Ли Уилкоф, Шон Мюррэй, Джейсон Хорст, Дианна Миллиган, Морган Брэйтон, Роберт Муннс, Билл Дау, Шон МакДональд, Фрэнк Ч. Тёрнер, Джон Р. Тейлор, Стивен Е. Миллер, Дуайт МакФи, Кен Камру, Росс Частон, Скотт Вудманси, Дэннис Костецкий, Маршалл Дэнсинг Элк Лукас COMPOSER : Картер Бёруэлл COUNTRY : США DATE : 1993 DIRECTOR : Майкл Кейтон-Джонс GENRE : драма, биография IMDB_RATING : 7.30 ITUNEXTC : mpaa|R|400| ORIGINAL_TITLE : This Boy's Life PRODUCER : Арт Линсон, Фитч Кэди, Питер Губер, Джон Питерс RATING : 7.760 WRITER : Роберт Гетчелл, Тобиас Вулф Video ID : 1 Format : AVC Format/Info : Advanced Video Codec Format profile : High@L4.1 Format settings, CABAC : Yes Format settings, ReFrames : 11 frames Codec ID : V_MPEG4/ISO/AVC Duration : 1 h 54 min Bit rate : 2 145 kb/s Width : 1 026 pixels Height : 426 pixels Display aspect ratio : 2.40:1 Frame rate mode : Constant Frame rate : 23.976 (24000/1001) FPS Color space : YUV Chroma subsampling : 4:2:0 Bit depth : 8 bits Scan type : Progressive Bits/(Pixel*Frame) : 0.205 Stream size : 1.68 GiB (77%) Title : RIP_BY_-=DoMiNo=- Writing library : x264 core 150 r2833M df79067 Encoding settings : cabac=1 / ref=11 / deblock=1:-3:-3 / analyse=0x3:0x133 / me=umh / subme=11 / psy=1 / psy_rd=1.00:0.05 / mixed_ref=1 / me_range=56 / chroma_me=1 / trellis=2 / 8x8dct=1 / cqm=0 / deadzone=21,11 / fast_pskip=0 / chroma_qp_offset=-3 / threads=6 / lookahead_threads=1 / sliced_threads=0 / nr=0 / decimate=1 / interlaced=0 / bluray_compat=0 / constrained_intra=0 / bframes=12 / b_pyramid=2 / b_adapt=2 / b_bias=0 / direct=3 / weightb=1 / open_gop=0 / weightp=2 / keyint=230 / keyint_min=23 / scenecut=40 / intra_refresh=0 / rc=2pass / mbtree=0 / bitrate=2145 / ratetol=1.0 / qcomp=0.65 / qpmin=0 / qpmax=69 / qpstep=4 / cplxblur=20.0 / qblur=0.5 / ip_ratio=1.40 / pb_ratio=1.30 / aq=1:1.00 Language : English Default : Yes Forced : No Color range : Limited Color primaries : BT.709 Transfer characteristics : BT.709 Matrix coefficients : BT.709 DURATION : 01:54:42.084000000 Audio #1 ID : 2 Format : AC-3 Format/Info : Audio Coding 3 Format settings, Endianness : Big Codec ID : A_AC3 Duration : 1 h 54 min Bit rate mode : Constant Bit rate : 192 kb/s Channel(s) : 2 channels Channel positions : Front: L R Sampling rate : 48.0 kHz Frame rate : 31.250 FPS (1536 spf) Bit depth : 16 bits Compression mode : Lossy Stream size : 158 MiB (7%) Title : MVO НТВ+ Language : Russian Service kind : Complete Main Default : Yes Forced : No DURATION : 01:54:43.008000000 Audio #2 ID : 3 Format : AC-3 Format/Info : Audio Coding 3 Format settings, Endianness : Big Codec ID : A_AC3 Duration : 1 h 54 min Bit rate mode : Constant Bit rate : 192 kb/s Channel(s) : 2 channels Channel positions : Front: L R Sampling rate : 48.0 kHz Frame rate : 31.250 FPS (1536 spf) Bit depth : 16 bits Compression mode : Lossy Stream size : 158 MiB (7%) Title : MVO VHS Language : Russian Service kind : Complete Main Default : No Forced : No DURATION : 01:54:41.088000000 Audio #3 ID : 4 Format : AC-3 Format/Info : Audio Coding 3 Format settings, Endianness : Big Codec ID : A_AC3 Duration : 1 h 54 min Bit rate mode : Constant Bit rate : 192 kb/s Channel(s) : 2 channels Channel positions : Front: L R Sampling rate : 48.0 kHz Frame rate : 31.250 FPS (1536 spf) Bit depth : 16 bits Compression mode : Lossy Stream size : 158 MiB (7%) Title : Original Language : English Service kind : Complete Main Default : No Forced : No DURATION : 01:54:43.008000000 Text #1 ID : 5 Format : UTF-8 Codec ID : S_TEXT/UTF8 Codec ID/Info : UTF-8 Plain Text Title : RUS Language : Russian Default : Yes Forced : No DURATION : 01:51:11.896000000 Text #2 ID : 6 Format : UTF-8 Codec ID : S_TEXT/UTF8 Codec ID/Info : UTF-8 Plain Text Title : ENG Language : English Default : No Forced : No DURATION : 01:50:16.482000000 Menu 00:00:00.000 : :00:00:00.000 00:08:18.039 : :00:08:18.039 00:16:27.987 : :00:16:27.987 00:26:42.476 : :00:26:42.476 00:35:16.864 : :00:35:16.865 00:43:51.629 : :00:43:51.629 00:52:21.930 : :00:52:21.930 01:04:47.926 : :01:04:47.926 01:14:52.780 : :01:14:52.780 01:24:40.325 : :01:24:40.325 01:37:05.236 : :01:37:05.236 01:48:41.181 : :01:48:41.181
[+] Скриншоты

Всего файлов в раздаче: 1 
Жизнь этого парня.(1993).BDRIP-AVC.[-=DoMiNo=-].mkv2.19 GB

Похожие раздачи по запросу - Жизнь
2024-05-22 magnet Выдуманная жизнь Эбботов / Inventing the Abbotts (1997) WEB-DLRip-AVC от DoMiNo | P 2.18 GB ↑ 0 ↓ 0
2024-05-20 magnet Одна жизнь / One Life (2023) BDRemux 1080p от селезень | D 26.17 GB ↑ 0 ↓ 1
2024-05-20 magnet Одна жизнь / One Life (2023) BDRip 1080p от селезень | D 14.13 GB ↑ 0 ↓ 0
2024-05-20 magnet Одна жизнь / One Life (2023) BDRip 720p от DoMiNo & селезень | D 4.71 GB ↑ 0 ↓ 0
2024-05-14 magnet Жизнь вверх ногами / Life Upside Down / Seven Weeks In (2023) WEB-DLRip от ExKinoRay | D 744.35 MB ↑ 0 ↓ 0
2024-05-14 magnet Жизнь вверх ногами / Life Upside Down / Seven Weeks In (2023) WEB-DLRip от New-Team | D | Баритон 1.46 GB ↑ 0 ↓ 0
2024-05-13 magnet Жизнь вверх ногами / Life Upside Down / Seven Weeks In (2023) WEB-DL 1080p от ExKinoRay | D 6.61 GB ↑ 1 ↓ 0

Кто качает (только для создателя раздачи и модераторов): Локальные пиры отсутствуют

Комментарии


Зарегистрируйтесь чтобы добавить комментарий
Торрент клиент
byTorrent - программа для загрузки торрент-файлов.

Скачать byTorrent.exe (1,5 МБ)

Скачать byTorrent.zip (0,6 МБ)

Поддержи torrent.by
российских рублей
(300 российских рублей это 4$)

Обратная связь rss

End game ©