↑↓torrent.by
Поиск
Логин:  Регистрация
Пароль:

Лэйк Плэсид: Озеро страха / Lake Placid (1999) BDRip 1080p от DoMiNo & селезень | D, P, A, L1 | Shout Factory

download Скачать торрент-файл   magnet Магнитная ссылка Размер: 8.02 GB Добавлен: 2024-05-06 05:00
Пиры будут получены из сети DHT
Последний сидер был замечен 2024-05-06 05:00
Информация о фильме Название: Лэйк Плэсид: Озеро страха Оригинальное название: Lake Placid Год выхода: 1999 Жанр: Ужасы, боевик, комедия Режиссер: Стив Майнер В ролях: Билл Пуллман, Бриджит Фонда, Оливер Платт, Брендан Глисон, Бетти Уайт, Дэвид Льюис, Тим Диксон, Наташа Мальте, Маришка Харгитей, Мередит Сэленджер Сюжет фильма: Лэйк Плэсид, тихое озеро, скрытое в девственных заповедных лесах Америки, завораживает своей древней красотой. Но эти спокойные воды окутывает ужасающая тайна, грозящая гибелью тем, кто захочет раскрыть ее. На темном дне в предвкушении следующей жертвы затаилось гигантское чудовище, которому не место ни в этом времени, ни в этом озере. Несчастного, нарушившего невидимую границу, ожидает верная смерть. Фатальная неизбежность леденит кровь и парализует разум, заставляя расставаться с надеждой на спасение. Какую цену придется заплатить, чтобы узнать тайну Озера Страха? Выпущено: США Продолжительность: 01:22:08 Перевод 1: Профессиональный (дублированный) - Мосфильм Перевод 2: Профессиональный (многоголосый закадровый) - R5 Перевод 3: Профессиональный (многоголосый закадровый) - РТР Перевод 4: Авторский (одноголосый закадровый) - Юрий Живов Перевод 5: Авторский (одноголосый закадровый) - Юрий Сербин Перевод 6: Авторский (одноголосый закадровый) - Андрей Дольский Перевод 7: Авторский (одноголосый закадровый) - Александр Кашкин Перевод 8: Авторский (одноголосый закадровый) - Михаил Яроцкий Перевод 9: Любительский (одноголосый закадровый) - Неизвестный Субтитры: Английские Файл Формат: Matroska Качество: BDRip 1080p | Shout Factory Видео: 1912x812 at 23.976 fps, x264@L4.1, ~10600 kbps Аудио 1: Russian, 48.0 KHz, AC3, 2 ch, 256 Kbps - Dub Мосфильм по заказу компании Парадиз 2000 г. Аудио 2: Russian, 48.0 KHz, AC3, 6 ch, 384 Kbps - MVO R5 Аудио 3: Russian, 48.0 KHz, AC3, 2 ch, 192 Kbps - MVO РТР Аудио 4: Russian, 48.0 KHz, AC3, 6 ch, 640 Kbps - AVO Юрий Живов Аудио 5: Russian, 48.0 KHz, AC3, 2 ch, 192 Kbps - AVO Юрий Сербин Аудио 6: Russian, 48.0 KHz, AC3, 2 ch, 192 Kbps - AVO Андрей Дольский Аудио 7: Russian, 48.0 KHz, AC3, 2 ch, 192 Kbps - AVO Александр Кашкин Аудио 8: Russian, 48.0 KHz, AC3, 6 ch, 448 Kbps - AVO Михаил Яроцкий Аудио 9: Russian, 48.0 KHz, AC3, 2 ch, 192 Kbps - VO Неизвестный Аудио 10: English, 48.0 KHz, AC3, 6 ch, 640 Kbps - Original Формат субтитров: softsub (SRT) ***Рип от: -=DoMiNo=-
[+] M/IGeneral Unique ID : 172507866995315293515053451197962404909 (0x81C7CE81D9C921550FC4E78FB1AA442D) Complete name : S:Lake.Placid.1999.Shout.Factory.BDRip.1080p.x264.seleZen.mkv Format : Matroska Format version : Version 4 File size : 8.02 GiB Duration : 1 h 22 min Overall bit rate : 14.0 Mb/s Frame rate : 23.976 FPS Movie name : Lake.Placid.1999.Shout.Factory.BDRip.1080p.x264.seleZen Encoded date : 2024-05-05 16:08:07 UTC Writing application : mkvmerge v84.0 ('Sleeper') 64-bit Writing library : libebml v1.4.5 + libmatroska v1.7.1 Cover : Yes Attachments : cover.jpg / small_cover.jpg Video ID : 1 Format : AVC Format/Info : Advanced Video Codec Format profile : High@L4.1 Format settings : CABAC / 5 Ref Frames Format settings, CABAC : Yes Format settings, Reference : 5 frames Codec ID : V_MPEG4/ISO/AVC Duration : 1 h 22 min Bit rate : 10.6 Mb/s Width : 1 912 pixels Height : 812 pixels Display aspect ratio : 2.35:1 Frame rate mode : Constant Frame rate : 23.976 (24000/1001) FPS Color space : YUV Chroma subsampling : 4:2:0 Bit depth : 8 bits Scan type : Progressive Bits/(Pixel*Frame) : 0.286 Stream size : 6.10 GiB (76%) Title : -=DoMiNo=- Writing library : x264 core 164 r3190 -DoMiNo Encoding settings : cabac=1 / ref=5 / deblock=1:-2:-2 / analyse=0x3:0x133 / me=umh / subme=10 / psy=1 / psy_rd=1.00:0.00 / mixed_ref=1 / me_range=32 / chroma_me=1 / trellis=2 / 8x8dct=1 / cqm=0 / deadzone=21,11 / fast_pskip=0 / chroma_qp_offset=-2 / threads=24 / lookahead_threads=6 / sliced_threads=0 / nr=0 / decimate=1 / interlaced=0 / bluray_compat=0 / constrained_intra=0 / bframes=12 / b_pyramid=2 / b_adapt=2 / b_bias=0 / direct=3 / weightb=1 / open_gop=0 / weightp=2 / keyint=240 / keyint_min=23 / scenecut=40 / intra_refresh=0 / rc_lookahead=60 / rc=crf / mbtree=0 / crf=16.8 / qcomp=0.60 / qpmin=0 / qpmax=69 / qpstep=4 / vbv_maxrate=50000 / vbv_bufsize=62500 / crf_max=0.0 / nal_hrd=none / filler=0 / ip_ratio=1.40 / pb_ratio=1.30 / aq=1:0.80 Language : English Default : Yes Forced : No Color range : Limited Color primaries : BT.709 Transfer characteristics : BT.709 Matrix coefficients : BT.709 Audio #1 ID : 2 Format : AC-3 Format/Info : Audio Coding 3 Commercial name : Dolby Digital Codec ID : A_AC3 Duration : 1 h 22 min Bit rate mode : Constant Bit rate : 256 kb/s Channel(s) : 2 channels Channel layout : L R Sampling rate : 48.0 kHz Frame rate : 31.250 FPS (1536 SPF) Compression mode : Lossy Stream size : 150 MiB (2%) Title : Dub Мосфильм по заказу компании Парадиз 2000 г. Language : Russian Service kind : Complete Main Default : Yes Forced : No Audio #2 ID : 3 Format : AC-3 Format/Info : Audio Coding 3 Commercial name : Dolby Digital Codec ID : A_AC3 Duration : 1 h 22 min Bit rate mode : Constant Bit rate : 384 kb/s Channel(s) : 6 channels Channel layout : L R C LFE Ls Rs Sampling rate : 48.0 kHz Frame rate : 31.250 FPS (1536 SPF) Compression mode : Lossy Stream size : 226 MiB (3%) Title : MVO R5 Language : Russian Service kind : Complete Main Default : No Forced : No AC3_metadata cmixlev : -3.0 dB surmixlev : -3 dB Audio #3 ID : 4 Format : AC-3 Format/Info : Audio Coding 3 Commercial name : Dolby Digital Codec ID : A_AC3 Duration : 1 h 22 min Bit rate mode : Constant Bit rate : 192 kb/s Channel(s) : 2 channels Channel layout : L R Sampling rate : 48.0 kHz Frame rate : 31.250 FPS (1536 SPF) Compression mode : Lossy Stream size : 113 MiB (1%) Title : MVO РТР Language : Russian Service kind : Complete Main Default : No Forced : No Audio #4 ID : 5 Format : AC-3 Format/Info : Audio Coding 3 Commercial name : Dolby Digital Codec ID : A_AC3 Duration : 1 h 22 min Bit rate mode : Constant Bit rate : 640 kb/s Channel(s) : 6 channels Channel layout : L R C LFE Ls Rs Sampling rate : 48.0 kHz Frame rate : 31.250 FPS (1536 SPF) Compression mode : Lossy Stream size : 376 MiB (5%) Title : AVO Юрий Живов Language : Russian Service kind : Complete Main Default : No Forced : No AC3_metadata cmixlev : -4.5 dB surmixlev : -6 dB Audio #5 ID : 6 Format : AC-3 Format/Info : Audio Coding 3 Commercial name : Dolby Digital Codec ID : A_AC3 Duration : 1 h 22 min Bit rate mode : Constant Bit rate : 192 kb/s Channel(s) : 2 channels Channel layout : L R Sampling rate : 48.0 kHz Frame rate : 31.250 FPS (1536 SPF) Compression mode : Lossy Stream size : 113 MiB (1%) Title : AVO Юрий Сербин Language : Russian Service kind : Complete Main Default : No Forced : No Audio #6 ID : 7 Format : AC-3 Format/Info : Audio Coding 3 Commercial name : Dolby Digital Codec ID : A_AC3 Duration : 1 h 22 min Bit rate mode : Constant Bit rate : 192 kb/s Channel(s) : 2 channels Channel layout : L R Sampling rate : 48.0 kHz Frame rate : 31.250 FPS (1536 SPF) Compression mode : Lossy Stream size : 113 MiB (1%) Title : AVO Андрей Дольский Language : Russian Service kind : Complete Main Default : No Forced : No Audio #7 ID : 8 Format : AC-3 Format/Info : Audio Coding 3 Commercial name : Dolby Digital Codec ID : A_AC3 Duration : 1 h 22 min Bit rate mode : Constant Bit rate : 192 kb/s Channel(s) : 2 channels Channel layout : L R Sampling rate : 48.0 kHz Frame rate : 31.250 FPS (1536 SPF) Compression mode : Lossy Stream size : 113 MiB (1%) Title : AVO Александр Кашкин Language : Russian Service kind : Complete Main Default : No Forced : No Audio #8 ID : 9 Format : AC-3 Format/Info : Audio Coding 3 Commercial name : Dolby Digital Codec ID : A_AC3 Duration : 1 h 22 min Bit rate mode : Constant Bit rate : 448 kb/s Channel(s) : 6 channels Channel layout : L R C LFE Ls Rs Sampling rate : 48.0 kHz Frame rate : 31.250 FPS (1536 SPF) Compression mode : Lossy Stream size : 263 MiB (3%) Title : VO Михаил Яроцкий Language : Russian Service kind : Complete Main Default : No Forced : No AC3_metadata cmixlev : -3.0 dB surmixlev : -3 dB Audio #9 ID : 10 Format : AC-3 Format/Info : Audio Coding 3 Commercial name : Dolby Digital Codec ID : A_AC3 Duration : 1 h 22 min Bit rate mode : Constant Bit rate : 192 kb/s Channel(s) : 2 channels Channel layout : L R Sampling rate : 48.0 kHz Frame rate : 31.250 FPS (1536 SPF) Compression mode : Lossy Stream size : 113 MiB (1%) Title : VO Неизвестный Language : Russian Service kind : Complete Main Default : No Forced : No Audio #10 ID : 11 Format : AC-3 Format/Info : Audio Coding 3 Commercial name : Dolby Digital Codec ID : A_AC3 Duration : 1 h 22 min Bit rate mode : Constant Bit rate : 640 kb/s Channel(s) : 6 channels Channel layout : L R C LFE Ls Rs Sampling rate : 48.0 kHz Frame rate : 31.250 FPS (1536 SPF) Compression mode : Lossy Stream size : 376 MiB (5%) Title : Original Language : English Service kind : Complete Main Default : No Forced : No AC3_metadata cmixlev : -4.5 dB surmixlev : -6 dB Text ID : 12 Format : UTF-8 Codec ID : S_TEXT/UTF8 Codec ID/Info : UTF-8 Plain Text Duration : 1 h 14 min Bit rate : 62 b/s Frame rate : 0.322 FPS Count of elements : 1443 Stream size : 34.3 KiB (0%) Title : English Full Language : English Default : No Forced : No Menu 00:00:00.000 : en:Main title 00:02:47.493 : en:The Attack 00:07:16.345 : en:The Arrival at the Lake 00:15:02.144 : en:First Inspections 00:21:41.841 : en:In the Boat 00:40:42.981 : en:The Grizzly 00:48:20.931 : en:On the Trail of the Monster 00:50:37.736 : en:Mrs Bickerman 00:52:55.749 : en:The Eyes of the Dragon 00:59:01.406 : en:The Plan 01:01:44.692 : en:Everyone Ready 01:05:18.407 : en:Kill Him, Hank! 01:13:42.826 : en:It's Over 01:15:03.993 : en:So, Jack? 01:16:38.337 : en:Surprise! 01:17:30.490 : en:End Credits
Релиз: Присоединяйся к: Кликай на баннеры.

Всего файлов в раздаче: 1 
Lake.Placid.1999.Shout.Factory.BDRip.1080p.x264.seleZen.mkv8.02 GB

Комментарии


Зарегистрируйтесь чтобы добавить комментарий
Торрент клиент
byTorrent - программа для загрузки торрент-файлов.

Скачать byTorrent.exe (1,5 МБ)

Скачать byTorrent.zip (0,6 МБ)

Поддержи torrent.by
российских рублей
(300 российских рублей это 4$)

Обратная связь rss

End game ©