↑↓torrent.by
Поиск
Логин:  Регистрация
Пароль:

Кровь в обмен на пыль / Blood for Dust (2023) BDRip 1080p от New-Team | D

download Скачать торрент-файл   magnet Магнитная ссылка Размер: 8.36 GB Раздают: 0 Качают: 1 Добавлен: 2024-05-06 05:00
Пиры будут получены из сети DHT
Последний сидер был замечен 2024-05-06 23:11
Кровь в обмен на пыль / Blood for Dust Год выпуска: 2023 Выпущено: США, BondIt, Good Wizard, Gramercy Park Media, JaiD7 Pictures Жанр: Боевик, триллер, криминал Режиссер: Род Блэкхёрст / Rod Blackhurst В ролях: Джош Лукас, Кит Харингтон, Скут Макнэри, Итэн Сапли, Стивен Дорфф, Нора Зеетнер, Крис Маллинэкс, Трэвис Брюэр, Эмбер Роуз Мейсон, Эверетт Бланк О фильме: Коммивояжер Клифф ради семьи залезает в долги и стремительно идет ко дну. В отчаянной надежде он соглашается сотрудничать с Рикки, не подозревая, что именно тот перевозит. Теперь его задача — выйти сухим из воды — в бизнесе, где это еще никому не удавалось. Продолжительность: 01:41:20 Перевод: Профессиональный (полное дублирование) | СиПиАй Филмз / CPI Films Субтитры: Русские (forced, full), английские Раздача от: Автор релиза: JNS82. Формат: MKV Качество: BDRip 1080p Видео: MPEG-4 AVC, 11.0 Мбит/с, (2,40:1), 1920x804, 23,976 fps Аудио #1: 48 kHz, AC3 Dolby Digital, 3/2 (L,C,R,l,r) + LFE ch, ~ 384 kbps | RUS | Аудио #2: 48 kHz, AC3 Dolby Digital, 3/2 (L,C,R,l,r) + LFE ch, ~ 448 kbps | ENG |
[+] MediaInfoОбщее Уникальный идентификатор : 138690622279316536600303447064597501947 (0x6856D79D640DA3DA78AC0148E2D817FB) Полное имя : D:TorrentsBlood.for.Dust.2024.BDRip.1080p_от New-Team_by_JNS82.mkv Формат : Matroska Версия формата : Version 4 Размер файла : 8,36 Гбайт Продолжительность : 1 ч. 41 м. Общий поток : 11,8 Мбит/сек Название фильма : Blood.for.Dust.2024.BDRip.1080p_от New-Team_by_JNS82 Дата кодирования : UTC 2024-05-05 16:19:34 Программа кодирования : mkvmerge v79.0 ('Funeral Pyres') 64-bit Библиотека кодирования : libebml v1.4.4 + libmatroska v1.7.1 Видео Идентификатор : 1 Формат : AVC Формат/Информация : Advanced Video Codec Профиль формата : High@L4.1 Настройки формата : CABAC / 5 Ref Frames Параметр CABAC формата : Да Параметр RefFrames формата : 5 кадров Идентификатор кодека : V_MPEG4/ISO/AVC Продолжительность : 1 ч. 41 м. Битрейт : 11,0 Мбит/сек Ширина : 1 920 пикселей Высота : 804 пикселя Соотношение сторон : 2,40:1 Режим частоты кадров : Постоянный Частота кадров : 23,976 (24000/1001) кадра/сек Цветовое пространство : YUV Субдискретизация насыщенности : 4:2:0 Битовая глубина : 8 бит Тип развёртки : Прогрессивная Бит/(Пиксели*Кадры) : 0.297 Размер потока : 7,77 Гбайт (93%) Библиотека кодирования : x264 core 164 r3156+57M NewTeam t_mod_New Настройки программы : cabac=1 / ref=5 / deblock=1:-3:-3 / analyse=0x3:0x133 / me=umh / subme=10 / psy=1 / fade_compensate=0.00 / psy_rd=1.00:0.01 / mixed_ref=1 / me_range=48 / chroma_me=1 / trellis=2 / 8x8dct=1 / cqm=0 / deadzone=21,11 / fast_pskip=0 / chroma_qp_offset=-3 / threads=18 / lookahead_threads=3 / sliced_threads=0 / nr=0 / decimate=0 / interlaced=0 / bluray_compat=0 / constrained_intra=0 / fgo=0 / bframes=9 / b_pyramid=2 / b_adapt=2 / b_bias=0 / direct=3 / weightb=1 / open_gop=0 / weightp=2 / keyint=240 / keyint_min=23 / scenecut=40 / intra_refresh=0 / rc_lookahead=60 / rc=2pass / mbtree=0 / bitrate=11000 / ratetol=1.0 / qcomp=0.60 / qpmin=0:0:0 / qpmax=69:69:69 / qpstep=5 / cplxblur=20.0 / qblur=0.5 / vbv_maxrate=50000 / vbv_bufsize=62500 / nal_hrd=none / filler=0 / ip_ratio=1.35 / pb_ratio=1.30 / aq=1:1.00 / aq-sensitivity=10.00 / aq-factor=1.00:1.00:1.00 / aq2=0 / aq3=0 Язык : English Default : Да Forced : Нет Аудио #1 Идентификатор : 2 Формат : AC-3 Формат/Информация : Audio Coding 3 Коммерческое название : Dolby Digital Идентификатор кодека : A_AC3 Продолжительность : 1 ч. 41 м. Вид битрейта : Постоянный Битрейт : 384 Кбит/сек Каналы : 6 каналов Channel layout : L R C LFE Ls Rs Частота : 48,0 КГц Частота кадров : 31,250 кадров/сек (1536 SPF) Метод сжатия : С потерями Размер потока : 278 Мбайт (3%) Заголовок : DUB - СиПиАй Филмз / CPI Films Язык : Russian Service kind : Complete Main Default : Да Forced : Нет Аудио #2 Идентификатор : 3 Формат : AC-3 Формат/Информация : Audio Coding 3 Коммерческое название : Dolby Digital Идентификатор кодека : A_AC3 Продолжительность : 1 ч. 41 м. Вид битрейта : Постоянный Битрейт : 448 Кбит/сек Каналы : 6 каналов Channel layout : L R C LFE Ls Rs Частота : 48,0 КГц Частота кадров : 31,250 кадров/сек (1536 SPF) Метод сжатия : С потерями Размер потока : 325 Мбайт (4%) Заголовок : Original Язык : English Service kind : Complete Main Default : Нет Forced : Нет Текст #1 Идентификатор : 4 Формат : UTF-8 Идентификатор кодека : S_TEXT/UTF8 Идентификатор кодека/Информация : UTF-8 Plain Text Продолжительность : 1 ч. 31 м. Битрейт : 0 бит/сек Count of elements : 16 Размер потока : 608 байт (0%) Заголовок : Язык : Russian Default : Да Forced : Нет Текст #2 Идентификатор : 5 Формат : UTF-8 Идентификатор кодека : S_TEXT/UTF8 Идентификатор кодека/Информация : UTF-8 Plain Text Продолжительность : 1 ч. 31 м. Битрейт : 52 бит/сек Count of elements : 804 Размер потока : 35,5 Кбайт (0%) Заголовок : Язык : Russian Default : Нет Forced : Нет Текст #3 Идентификатор : 6 Формат : UTF-8 Идентификатор кодека : S_TEXT/UTF8 Идентификатор кодека/Информация : UTF-8 Plain Text Продолжительность : 1 ч. 34 м. Битрейт : 40 бит/сек Count of elements : 930 Размер потока : 28,0 Кбайт (0%) Язык : English Default : Нет Forced : Нет Меню 00:00:00.000 : en:Chapter 01 00:08:04.067 : en:Chapter 02 00:15:59.500 : en:Chapter 03 00:26:29.338 : en:Chapter 04 00:36:13.254 : en:Chapter 05 00:44:23.035 : en:Chapter 06 00:52:03.829 : en:Chapter 07 01:00:42.889 : en:Chapter 08 01:10:12.125 : en:Chapter 09 01:17:24.849 : en:Chapter 10 01:27:46.344 : en:Chapter 11 01:34:11.145 : en:Chapter 12

Всего файлов в раздаче: 1 
Blood.for.Dust.2024.BDRip.1080p_от New-Team_by_JNS82.mkv8.36 GB

Похожие раздачи по запросу - Кровь
2024-05-14 magnet Кровь Зевса / Blood of Zeus [S02] (2024) WEB-DL 1080p от Jaskier | P 10.05 GB ↑ 0 ↓ 0
2024-05-13 magnet Кровь Зевса / Blood of Zeus [02x01-02 из 08] (2024) WEB-DL 1080p от Jaskier | P 2.59 GB ↑ 0 ↓ 0
2024-05-10 magnet Кровь / Blood (2022) BDRip-AVC от DoMiNo & селезень | D 1К1.46 GB ↑ 0 ↓ 0
2024-05-09 magnet Кровь в обмен на пыль / Blood for Dust (2023) BDRip-AVC | D 1.46 GB ↑ 0 ↓ 0
2024-05-06 magnet Монти Механик - Дурная кровь (2024) FLAC 146.97 MB ↑ 0 ↓ 0
2024-05-06 magnet Кровь в обмен на пыль / Blood for Dust (2023) HDRip от MegaPeer | D 1.45 GB ↑ 0 ↓ 0
2024-05-06 magnet Кровь в обмен на пыль / Blood for Dust (2023) BDRip 720p от New-Team | D 4.01 GB ↑ 0 ↓ 0

Кто качает (только для создателя раздачи и модераторов):
ПользовательIP:портОтдалПринялОстатокСидируетТоррент клиентОбновился
1 Аноним 43.207.192.10:45441 10.98 MB 8.58 GB 8.28 GB нет -qB4390- 07:52 2024-05-19

Комментарии


Зарегистрируйтесь чтобы добавить комментарий
Торрент клиент
byTorrent - программа для загрузки торрент-файлов.

Скачать byTorrent.exe (1,5 МБ)

Скачать byTorrent.zip (0,6 МБ)

Поддержи torrent.by
российских рублей
(300 российских рублей это 4$)

Обратная связь rss

End game ©