↑↓torrent.by
Поиск
Логин:  Регистрация
Пароль:

Yuja Wang - The Vienna Recital [24-bit Hi-Res] (2024) FLAC

download Скачать торрент-файл   magnet Магнитная ссылка Размер: 1.18 GB Добавлен: 2024-05-06 11:00
Пиры будут получены из сети DHT
Последний сидер был замечен 2024-05-12 15:42
Название: The Vienna Recital Исполнитель: Yuja Wang Год: 2024 Жанр: Classical Издатель (лейбл): Deutsche Grammophon (DG) Продолжительность: 01:18:05 Формат/Кодек: FLAC Тип рипа: Tracks + booklet Битрейт аудио: Lossless Разрядность: 24 Bit/96 kHz
[+] Трек-лист 01. Iberia, T. 105 / Book 4: No. 10, Málaga (00:04:57) 02. Piano Sonata No. 3 In F-Sharp Minor, Op. 23: I. Drammatico (00:06:35) 03. Piano Sonata No. 3 In F-Sharp Minor, Op. 23: Ii. Allegretto (00:02:50) 04. Piano Sonata No. 3 In F-Sharp Minor, Op. 23: Iii. Andante (00:04:40) 05. Piano Sonata No. 3 In F-Sharp Minor, Op. 23: Iv. Presto Con Fuoco (00:05:55) 06. 24 Jazz Preludes, Op. 53: No. 11 (00:02:41) 07. 24 Jazz Preludes, Op. 53: No. 10 (00:01:50) 08. Iberia, T. 105 / Book 3: No. 9, Lavapiés (00:05:46) 09. Piano Sonata No. 18 In E-Flat Major, Op. 31 No. 3 "The Hunt": I. Allegro (00:06:17) 10. Piano Sonata No. 18 In E-Flat Major, Op. 31 No. 3 "The Hunt": Ii. Scherzo. Allegretto Vivace (00:03:28) 11. Piano Sonata No. 18 In E-Flat Major, Op. 31 No. 3 "The Hunt": Iii. Minuet. Moderato E Grazioso - Trio (00:03:02) 12. Piano Sonata No. 18 In E-Flat Major, Op. 31 No. 3 "The Hunt": Iv. Presto Con Fuoco (00:03:46) 13. Études, Book 2: No. 6, Automne À Varsovie (00:04:52) 14. Études, Book 2: No. 13, L'escalier Du Diable (00:05:01) 15. Études: No. 6 (00:02:47) 16. Danzón No. 2 (Transcr. Gómez-Tagle For Piano) (00:03:46) 17. 3 Intermezzi, Op. 117: No. 3 In C-Sharp Minor. Andante Con Moto (00:06:46) 18. Orfeo Ed Euridice, Wq. 30: Melodie Dell'orfeo (Arr. Sgambati For Piano) (00:03:06)
[+] DRM foobar2000 1.5.5 / Замер динамического диапазона (DR) 1.1.1 ------------------------------------------------------------------------------- Анализ: Yuja Wang / The Vienna Recital -------------------------------------------------------------------------------- DR Пики RMS Продолжительность трека -------------------------------------------------------------------------------- DR13 -1.53 дБ -19.80 дБ 4:57 01-Iberia, T. 105 / Book 4: No. 10, Málaga DR13 -2.63 дБ -21.54 дБ 6:35 02-Piano Sonata No. 3 In F-Sharp Minor, Op. 23: I. Drammatico DR12 -0.86 дБ -18.27 дБ 2:50 03-Piano Sonata No. 3 In F-Sharp Minor, Op. 23: Ii. Allegretto DR14 -9.57 дБ -29.34 дБ 4:40 04-Piano Sonata No. 3 In F-Sharp Minor, Op. 23: Iii. Andante DR13 -0.86 дБ -17.90 дБ 5:55 05-Piano Sonata No. 3 In F-Sharp Minor, Op. 23: Iv. Presto Con Fuoco DR15 -6.15 дБ -25.62 дБ 2:41 06-24 Jazz Preludes, Op. 53: No. 11 DR14 -0.86 дБ -19.75 дБ 1:50 07-24 Jazz Preludes, Op. 53: No. 10 DR14 -0.86 дБ -18.42 дБ 5:46 08-Iberia, T. 105 / Book 3: No. 9, Lavapiés DR16 -1.25 дБ -24.00 дБ 6:17 09-Piano Sonata No. 18 In E-Flat Major, Op. 31 No. 3 "The Hunt": I. Allegro DR16 -0.92 дБ -23.35 дБ 3:28 10-Piano Sonata No. 18 In E-Flat Major, Op. 31 No. 3 "The Hunt": Ii. Scherzo. Allegretto Vivace DR16 -2.43 дБ -26.81 дБ 3:02 11-Piano Sonata No. 18 In E-Flat Major, Op. 31 No. 3 "The Hunt": Iii. Minuet. Moderato E Grazioso - Trio DR13 -0.86 дБ -19.95 дБ 3:46 12-Piano Sonata No. 18 In E-Flat Major, Op. 31 No. 3 "The Hunt": Iv. Presto Con Fuoco DR14 -0.86 дБ -21.04 дБ 4:52 13-Études, Book 2: No. 6, Automne À Varsovie DR10 -0.86 дБ -16.37 дБ 5:01 14-Études, Book 2: No. 13, L'escalier Du Diable DR11 -0.89 дБ -18.28 дБ 2:47 15-Études: No. 6 DR13 -0.86 дБ -19.30 дБ 3:46 16-Danzón No. 2 (Transcr. Gómez-Tagle For Piano) DR15 -5.29 дБ -27.58 дБ 6:46 17-3 Intermezzi, Op. 117: No. 3 In C-Sharp Minor. Andante Con Moto DR13 -11.03 дБ -30.16 дБ 3:06 18-Orfeo Ed Euridice, Wq. 30: Melodie Dell'orfeo (Arr. Sgambati For Piano) -------------------------------------------------------------------------------- Количество треков: 18 Реальные значения DR: DR14 Частота: 96000 Гц Каналов: 2 Разрядность: 24 Битрейт: 2027 кбит/с Кодек: FLAC ================================================================================
Время раздачи: 24/7 (минимум до появления первых 3-5 скачавших, на раздачи не возвращаюсь) Первое правило участника файлообмена: "Скачал сам - дай скачать другому!"

Всего файлов в раздаче: 20 
01. Iberia, T. 105 - Book 4_ No. 10, Málaga.flac78.96 MB
02. Piano Sonata No. 3 in F-Sharp Minor, Op. 23_ I. Drammatico.flac101.92 MB
03. Piano Sonata No. 3 in F-Sharp Minor, Op. 23_ II. Allegretto.flac44.47 MB
04. Piano Sonata No. 3 in F-Sharp Minor, Op. 23_ III. Andante.flac67.89 MB
05. Piano Sonata No. 3 in F-Sharp Minor, Op. 23_ IV. Presto con fuoco.flac94.62 MB
06. 24 Jazz Preludes, Op. 53_ No. 11.flac40.64 MB
07. 24 Jazz Preludes, Op. 53_ No. 10.flac29.32 MB
08. Iberia, T. 105 - Book 3_ No. 9, Lavapiés.flac93.83 MB
09. Piano Sonata No. 18 in E-Flat Major, Op. 31 No. 3 _The Hunt__ I. Allegro.flac95.87 MB
10. Piano Sonata No. 18 in E-Flat Major, Op. 31 No. 3 _The Hunt__ II. Scherzo. Allegretto vivace.flac53.23 MB
Показать все файлы

Комментарии


Зарегистрируйтесь чтобы добавить комментарий
Торрент клиент
byTorrent - программа для загрузки торрент-файлов.

Скачать byTorrent.exe (1,5 МБ)

Скачать byTorrent.zip (0,6 МБ)

Поддержи torrent.by
российских рублей
(300 российских рублей это 4$)

Обратная связь rss

End game ©