↑↓torrent.by
Поиск
Логин:  Регистрация
Пароль:

Dea Matrona - For Your Sins [24-bit Hi-Res] (2024) FLAC

download Скачать торрент-файл   magnet Магнитная ссылка Размер: 386.55 MB Добавлен: 2024-05-06 11:00
Пиры будут получены из сети DHT
Последний сидер был замечен 2024-05-13 19:06
Название: Dea Matrona Исполнитель: For Your Sins Год: 2024 Жанр: Rock, Soft-Rock Издатель (лейбл): Dea Matrona Продолжительность: 00:32:58 Формат/Кодек: FLAC Тип рипа: Tracks Битрейт аудио: Lossless Разрядность: 24 Bit/44,1 kHz
[+] Трек-лист 01. Stuck On You (00:03:12) 02. Stamp On It (00:02:06) 03. Red Button (00:02:56) 04. Every Night I Want You (00:02:51) 05. So Damn Dangerous (00:03:03) 06. Glory, Glory (I Am Free) (00:02:40) 07. Wilderness (00:02:29) 08. Did Nobody Ever Love You? (00:02:35) 09. Won't Feel Like This Forever (00:02:15) 10. Dead Man's Heart (00:02:08) 11. Get My Mind Off (00:03:05) 12. Black Rain (00:03:38)
[+] DRM foobar2000 1.5.5 / Замер динамического диапазона (DR) 1.1.1 ------------------------------------------------------------------------------ Анализ: Dea Matrona / For Your Sins -------------------------------------------------------------------------------- DR Пики RMS Продолжительность трека -------------------------------------------------------------------------------- DR7 -0.01 дБ -8.68 дБ 3:12 01-Stuck On You DR7 -0.01 дБ -8.45 дБ 2:06 02-Stamp On It DR6 -0.01 дБ -7.83 дБ 2:56 03-Red Button DR8 -0.01 дБ -9.48 дБ 2:51 04-Every Night I Want You DR8 -0.01 дБ -9.50 дБ 3:03 05-So Damn Dangerous DR8 -0.01 дБ -9.98 дБ 2:40 06-Glory, Glory (I Am Free) DR6 -0.01 дБ -7.50 дБ 2:29 07-Wilderness DR7 -0.01 дБ -8.94 дБ 2:35 08-Did Nobody Ever Love You? DR8 -0.01 дБ -8.86 дБ 2:15 09-Won't Feel Like This Forever DR8 -0.01 дБ -8.88 дБ 2:08 10-Dead Man's Heart DR6 -0.01 дБ -7.91 дБ 3:05 11-Get My Mind Off DR7 -0.01 дБ -10.14 дБ 3:38 12-Black Rain -------------------------------------------------------------------------------- Количество треков: 12 Реальные значения DR: DR7 Частота: 44100 Гц Каналов: 2 Разрядность: 24 Битрейт: 1550 кбит/с Кодек: FLAC ================================================================================
Время раздачи: 24/7 (минимум до появления первых 3-5 скачавших, на раздачи не возвращаюсь) Первое правило участника файлообмена: "Скачал сам - дай скачать другому!"

Всего файлов в раздаче: 13 
01. Stuck on You.flac38.66 MB
02. Stamp on It.flac25.09 MB
03. Red Button.flac33.60 MB
04. Every Night I Want You.flac34.35 MB
05. So Damn Dangerous.flac35.80 MB
06. Glory, Glory (I am Free).flac30.11 MB
07. Wilderness.flac29.41 MB
08. Did Nobody Ever Love You_.flac30.15 MB
09. Won't Feel Like This Forever.flac26.74 MB
10. Dead Man's Heart.flac25.22 MB
Показать все файлы

Комментарии


Зарегистрируйтесь чтобы добавить комментарий
Торрент клиент
byTorrent - программа для загрузки торрент-файлов.

Скачать byTorrent.exe (1,5 МБ)

Скачать byTorrent.zip (0,6 МБ)

Поддержи torrent.by
российских рублей
(300 российских рублей это 4$)

Обратная связь rss

End game ©