↑↓torrent.by
Поиск
Логин:  Регистрация
Пароль:

VA - Best Sound Of Chill & Lounge 2024 – Summer Edition [24-bit Hi-Res] (2024) FLAC

download Скачать торрент-файл   magnet Магнитная ссылка Размер: 826.05 MB Добавлен: 2024-05-06 11:00
Пиры будут получены из сети DHT
Последний сидер был замечен 2024-05-12 13:01
Название: Best Sound Of Chill & Lounge 2024 – Summer Edition Исполнитель: VA Год: 2024 Жанр: Electronic Издатель (лейбл): Freebeat Music Records Продолжительность: 01:14:31 Формат/Кодек: FLAC Тип рипа: Tracks Битрейт аудио: Lossless Разрядность: 24 Bit/44,1 kHz
[+] Трек-лист 01. Soundset City - Keep On Moving (00:03:47) 02. Jean Mare - Kling Klang (00:03:38) 03. Audiozoom - Happy Smile (00:03:24) 04. Dave Neville - Rapture (00:03:30) 05. Bernon - Waiting Here For You (00:03:35) 06. Artenovum - Ko Samui (Dream House Mix) (00:03:51) 07. Jean Mare - Tequila Dub Chill (00:04:19) 08. Ciyou - Sun Road (00:02:59) 09. Soundset City - Smooth Touch (00:03:14) 10. Richard Bonnée - Changes (00:04:44) 11. Artenovum - Little Flower (00:04:37) 12. Jean Mare - Phoenix (00:04:07) 13. Artenovum - After Midnight (00:04:28) 14. Nightzoom - Sweet Trip (00:03:54) 15. Soundset City - Chillout Night Bar (00:03:34) 16. Dave Neville - Timeshift (00:03:05) 17. Bernon - I Dream Of You (More House Mix) (00:04:34) 18. Soundset City - 85 Miles (00:04:13) 19. Artenovum - Magic From The Loon Garden (00:04:58)
[+] DRM foobar2000 1.5.5 / Замер динамического диапазона (DR) 1.1.1 ------------------------------------------------------------------------------- Анализ: Artenovum / Best Sound Of Chill & Lounge 2024 – Summer Edition (1-4) Audiozoom / Best Sound Of Chill & Lounge 2024 – Summer Edition (5) Bernon / Best Sound Of Chill & Lounge 2024 – Summer Edition (6-7) Ciyou / Best Sound Of Chill & Lounge 2024 – Summer Edition (8) Dave Neville / Best Sound Of Chill & Lounge 2024 – Summer Edition (9-10) Jean Mare / Best Sound Of Chill & Lounge 2024 – Summer Edition (11-13) Nightzoom / Best Sound Of Chill & Lounge 2024 – Summer Edition (14) Richard Bonnée / Best Sound Of Chill & Lounge 2024 – Summer Edition (15) Soundset City / Best Sound Of Chill & Lounge 2024 – Summer Edition (16-19) -------------------------------------------------------------------------------- DR Пики RMS Продолжительность трека -------------------------------------------------------------------------------- DR9 -1.04 дБ -10.83 дБ 3:51 06-Ko Samui (Dream House Mix) DR10 -0.55 дБ -12.45 дБ 4:37 11-Little Flower DR10 -0.13 дБ -11.62 дБ 4:28 13-After Midnight DR8 -0.40 дБ -10.42 дБ 4:58 19-Magic From The Loon Garden DR6 -1.00 дБ -8.55 дБ 3:24 03-Happy Smile DR6 -1.00 дБ -8.02 дБ 3:35 05-Waiting Here For You DR8 0.00 дБ -9.03 дБ 4:34 17-I Dream Of You (More House Mix) DR7 -1.52 дБ -9.94 дБ 2:59 08-Sun Road DR7 -0.87 дБ -9.81 дБ 3:30 04-Rapture DR10 -0.40 дБ -12.43 дБ 3:05 16-Timeshift DR9 -1.03 дБ -11.18 дБ 3:38 02-Kling Klang DR8 -0.86 дБ -9.81 дБ 4:19 07-Tequila Dub Chill DR11 -1.00 дБ -13.74 дБ 4:07 12-Phoenix DR9 -0.40 дБ -11.40 дБ 3:54 14-Sweet Trip DR10 -1.05 дБ -11.96 дБ 4:44 10-Changes DR10 -0.50 дБ -12.31 дБ 3:47 01-Keep On Moving DR11 -1.04 дБ -13.35 дБ 3:14 09-Smooth Touch DR8 -0.86 дБ -11.06 дБ 3:34 15-Chillout Night Bar DR8 -0.20 дБ -9.93 дБ 4:13 18-85 Miles -------------------------------------------------------------------------------- Количество треков: 19 Реальные значения DR: DR9 Частота: 44100 Гц Каналов: 2 Разрядность: 24 Битрейт: 1479 кбит/с Кодек: FLAC ================================================================================
Время раздачи: 24/7 (минимум до появления первых 3-5 скачавших, на раздачи не возвращаюсь) Первое правило участника файлообмена: "Скачал сам - дай скачать другому!"

Всего файлов в раздаче: 20 
01. Soundset City - Keep on Moving.flac42.90 MB
02. Jean Mare - Kling Klang.flac40.32 MB
03. Audiozoom - Happy Smile.flac38.53 MB
04. Dave Neville - Rapture.flac37.02 MB
05. Bernon - Waiting Here For You.flac42.56 MB
06. Artenovum - Ko Samui (Dream House Mix).flac43.98 MB
07. Jean Mare - Tequila Dub Chill.flac51.92 MB
08. CiYou - Sun Road.flac32.87 MB
09. Soundset City - Smooth Touch.flac34.74 MB
10. Richard Bonnée - Changes.flac50.51 MB
Показать все файлы

Комментарии


Зарегистрируйтесь чтобы добавить комментарий
Торрент клиент
byTorrent - программа для загрузки торрент-файлов.

Скачать byTorrent.exe (1,5 МБ)

Скачать byTorrent.zip (0,6 МБ)

Поддержи torrent.by
российских рублей
(300 российских рублей это 4$)

Обратная связь rss

End game ©