↑↓torrent.by
Поиск
Логин:  Регистрация
Пароль:

Я - кот / Cicaverzum (2023) WEB-DL 1080p | D

download Скачать торрент-файл   magnet Магнитная ссылка Размер: 3.40 GB Раздают: 0 Качают: 1 Добавлен: 2024-05-06 11:00
Пиры будут получены из сети DHT
Последний сидер был замечен вчера в 19:12
Информация о фильме Название: Я - кот Оригинальное название: Cicaverzum Год выпуска: 2023 Жанр: Комедия, мелодрама, драма Выпущено: Венгрия, Lupa Pictures Режиссер: Розалия Селецки В ролях: Франциска Тёрёчик, Мартон Паткош, Цаба Полгар, Адель Чобот, Гергей Блахо, Анталь Агатич, Роберт Альфёльди, Балинт Меньхерт Бан, Золтан Фриденталь, Ласло Гёндёр, Аладар Хорват, Жофия Кемень, Тибор Кишш, Анна Кором, Аттила Лестян О фильме: 30-летняя Фани и рада бы встретить мужчину мечты, но все свидания заканчиваются крахом, потому что в каждом новом знакомом девушка видит потенциального маньяка. Никто, совершенно никто, не вызывает у Фани доверия. Все меняется, когда девушка знакомится с соседом. Он не кажется ей опасным, но и интересным тоже. Но вот его кот… Очаровательный черный кот внезапно начинает разговаривать с Фани. Оправившись от шока, девушка понимает, что кот - единственное живое существо на планете, с которым она хочет быть вместе. Продолжительность: 01:31:26 Перевод: Дублированный (Leff Sound) Файл Формат: MKV Качество: WEB-DL 1080p Видео: MPEG-4 AVC, 5000 Кбит/с, 1920x804 Аудио: Русский (E-AC3, 6 ch, 384 Кбит/с) Субтитры: нет
[+] Скриншоты
[+] MediaInfoGeneral Unique ID : 283729619125695110951045966090991327070 (0xD5745642E775B7E6624000C3297C575E) Complete name : F:TorrentsCicaverzum.1080p.WEB-DL.x264.mkv Format : Matroska Format version : Version 4 File size : 3.40 GiB Duration : 1 h 31 min Overall bit rate : 5 322 kb/s Frame rate : 24.000 FPS Writing application : mkvmerge v82.0 ('I'm The President') 64-bit Writing library : libebml v1.4.5 + libmatroska v1.7.1 Video ID : 1 Format : AVC Format/Info : Advanced Video Codec Format profile : High@L4 Format settings : CABAC / 3 Ref Frames Format settings, CABAC : Yes Format settings, Reference : 3 frames Codec ID : V_MPEG4/ISO/AVC Duration : 1 h 31 min Bit rate : 5 000 kb/s Width : 1 920 pixels Height : 804 pixels Display aspect ratio : 2.39:1 Frame rate mode : Constant Frame rate : 24.000 FPS Color space : YUV Chroma subsampling : 4:2:0 Bit depth : 8 bits Scan type : Progressive Bits/(Pixel*Frame) : 0.135 Stream size : 3.15 GiB (93%) Writing library : x264 core 164 r3095 baee400 Encoding settings : cabac=1 / ref=4 / deblock=1:-1:-1 / analyse=0x3:0x133 / me=umh / subme=9 / psy=1 / psy_rd=0.40:1.00 / mixed_ref=1 / me_range=24 / chroma_me=1 / trellis=0 / 8x8dct=1 / cqm=0 / deadzone=21,11 / fast_pskip=1 / chroma_qp_offset=-2 / threads=3 / lookahead_threads=1 / sliced_threads=0 / nr=0 / decimate=1 / interlaced=0 / bluray_compat=0 / stitchable=1 / constrained_intra=0 / bframes=8 / b_pyramid=1 / b_adapt=0 / b_bias=0 / direct=3 / weightb=1 / open_gop=0 / weightp=2 / keyint=72 / keyint_min=37 / scenecut=0 / intra_refresh=0 / rc_lookahead=40 / rc=2pass / mbtree=1 / bitrate=5000 / ratetol=1.0 / qcomp=0.80 / qpmin=1 / qpmax=69 / qpstep=4 / cplxblur=20.0 / qblur=0.5 / vbv_maxrate=7500 / vbv_bufsize=10000 / nal_hrd=none / filler=0 / ip_ratio=1.40 / aq=1:1.00 Language : English Default : Yes Forced : No Color range : Limited Color primaries : BT.709 Transfer characteristics : BT.709 Matrix coefficients : BT.709 Audio ID : 2 Format : E-AC-3 Format/Info : Enhanced AC-3 Commercial name : Dolby Digital Plus Codec ID : A_EAC3 Duration : 1 h 31 min Bit rate mode : Constant Bit rate : 384 kb/s Channel(s) : 6 channels Channel layout : L R C LFE Ls Rs Sampling rate : 48.0 kHz Frame rate : 31.250 FPS (1536 SPF) Bit depth : 32 bits Compression mode : Lossy Stream size : 251 MiB (7%) Language : Russian Service kind : Complete Main Default : Yes Forced : No

Всего файлов в раздаче: 1 
[NOOBDL]Cicaverzum.1080p.WEB-DL.x264.mkv3.40 GB

Похожие раздачи по запросу - кот
2024-05-06 magnet Я - кот / Cicaverzum (2023) WEB-DLRip 720p от DoMiNo & селезень | D 1.50 GB ↑ 0 ↓ 0
2024-05-06 magnet Я - кот / Cicaverzum (2023) WEB-DLRip от MegaPeer | D 1.46 GB ↑ 0 ↓ 0
2024-05-04 magnet Серия - «Кот ученый» [5 книг] (2023-2024) FB2, PDF 35.45 MB ↑ 0 ↓ 0
2023-01-11 magnet Кот в сапогах 2: Последнее желание / Puss in Boots: The Last Wish (2022) WEB-DL-HEVC 2160p | 4K | HDR10+ | P, L1 11.69 GB ↑ 1 ↓ 0
2023-01-10 magnet Кот в сапогах 2: Последнее желание / Puss in Boots: The Last Wish (2022) WEB-DLRip-AVC от DoMiNo & селезень | P | TVShows 1.92 GB ↑ 0 ↓ 0

Комментарии


Зарегистрируйтесь чтобы добавить комментарий
Торрент клиент
byTorrent - программа для загрузки торрент-файлов.

Скачать byTorrent.exe (1,5 МБ)

Скачать byTorrent.zip (0,6 МБ)

Поддержи torrent.by
российских рублей
(300 российских рублей это 4$)

Обратная связь rss

End game ©