↑↓torrent.by
Поиск
Логин:  Регистрация
Пароль:

Преображение / Метаморфозы / Byeonsin / Metamorphosis (2019) BDRip 1080p | L | Head Pack Films

download Скачать торрент-файл   magnet Магнитная ссылка Размер: 7.90 GB Добавлен: 2024-05-06 17:00
Пиры будут получены из сети DHT
Последний сидер был замечен 2024-05-08 17:42
Информация о фильме Название: Преображение / Метаморфозы Оригинальное название: Byeonsin / Metamorphosis Год выхода: 2019 Жанр: Ужасы Режиссер: Ким Хон-сон В ролях: Пэ Сон У, Сон Дон Иль, Чан Ён Нам, Ким Хе Джун, Чо И- Хён, Ким Ган Хун, Пэк Юн Щик, О Дэ Хван, Сон Джон Хак, Ким Гви Сон О фильме: Потусторонняя злая сущность пробирается в дружное корейское семейство из пяти человек и по очереди вселяется в каждого. Одержимый начинает себя странно и агрессивно вести, угрожая родственникам, и былому миру в доме приходит конец. Демона попытается одолеть брат главы семейства, удачно оказавшийся католическим священником. Страна: Корея Южная Продолжительность: 01:52:43 Перевод: Любительский (многоголосый, закадровый) | Head Pack Films Файл Формат: MKV Качество: BDRip 1080p Видео: MPEG-4 AVC, ~ 8 201 Кбит/с, 1920x800 Звук: Аудио#1: Russian: 48 kHz, AC-3, 2/0 (L,R) ch, ~320 kbps avg |многоголосый, закадровый | Head Pack Films Аудио#2: Korean: 44 kHz, DTS, 6/0 (C,L,R,Ls,Rs,LFE) ch, ~1 509 kbps avg Субтитры: нет
[+] МедиаИнфо: General Unique ID : 277298938415353827907169640063998222245 (0xD09DD53933DCAD3D9585A41F2175DFA5) Complete name : G:Metamorphosis (2019) BDRip 1080p.mkv Format : Matroska Format version : Version 4 File size : 7.90 GiB Duration : 1 h 52 min Overall bit rate : 10.0 Mb/s Movie name : Metamorphosis (2019) BDRip 1080p Encoded date : UTC 2024-05-04 18:07:49 Writing application : mkvmerge v62.0.0 ('Apollo') 64-bit Writing library : libebml v1.4.2 + libmatroska v1.6.4 Video ID : 1 Format : AVC Format/Info : Advanced Video Codec Format profile : High@L4.1 Format settings : CABAC / 5 Ref Frames Format settings, CABAC : Yes Format settings, Reference frames : 5 frames Codec ID : V_MPEG4/ISO/AVC Duration : 1 h 52 min Bit rate : 8 201 kb/s Width : 1 920 pixels Height : 800 pixels Display aspect ratio : 2.40:1 Frame rate mode : Constant Frame rate : 23.976 (24000/1001) FPS Color space : YUV Chroma subsampling : 4:2:0 Bit depth : 8 bits Scan type : Progressive Bits/(Pixel*Frame) : 0.223 Stream size : 6.45 GiB (82%) Writing library : x264 core 159 r2991 1771b55 Encoding settings : cabac=1 / ref=5 / deblock=1:0:0 / analyse=0x3:0x133 / me=umh / subme=7 / psy=1 / psy_rd=1.00:0.00 / mixed_ref=1 / me_range=16 / chroma_me=1 / trellis=1 / 8x8dct=1 / cqm=0 / deadzone=21,11 / fast_pskip=0 / chroma_qp_offset=-2 / threads=12 / lookahead_threads=2 / sliced_threads=0 / nr=0 / decimate=1 / interlaced=0 / bluray_compat=0 / constrained_intra=0 / bframes=3 / b_pyramid=2 / b_adapt=2 / b_bias=0 / direct=3 / weightb=1 / open_gop=0 / weightp=2 / keyint=240 / keyint_min=23 / scenecut=40 / intra_refresh=0 / rc_lookahead=50 / rc=2pass / mbtree=1 / bitrate=8201 / ratetol=1.0 / qcomp=0.60 / qpmin=0 / qpmax=69 / qpstep=4 / cplxblur=20.0 / qblur=0.5 / ip_ratio=1.40 / aq=1:1.00 Language : English Default : Yes Forced : No Audio #1 ID : 2 Format : AC-3 Format/Info : Audio Coding 3 Commercial name : Dolby Digital Codec ID : A_AC3 Duration : 1 h 52 min Bit rate mode : Constant Bit rate : 320 kb/s Channel(s) : 2 channels Channel layout : L R Sampling rate : 48.0 kHz Frame rate : 31.250 FPS (1536 SPF) Compression mode : Lossy Stream size : 258 MiB (3%) Language : Russian Service kind : Complete Main Default : Yes Forced : No Audio #2 ID : 3 Format : DTS Format/Info : Digital Theater Systems Codec ID : A_DTS Duration : 1 h 52 min Bit rate mode : Constant Bit rate : 1 509 kb/s Channel(s) : 6 channels Channel layout : C L R Ls Rs LFE Sampling rate : 48.0 kHz Frame rate : 93.750 FPS (512 SPF) Bit depth : 24 bits Compression mode : Lossy Stream size : 1.19 GiB (15%) Language : Korean Default : No Forced : No
[+] Скриншоты
[+] В главных ролях:
Релиз от: Без рекламы!

Всего файлов в раздаче: 1 
Metamorphosis (2019) BDRip 1080p.mkv7.90 GB

Комментарии


Зарегистрируйтесь чтобы добавить комментарий
Торрент клиент
byTorrent - программа для загрузки торрент-файлов.

Скачать byTorrent.exe (1,5 МБ)

Скачать byTorrent.zip (0,6 МБ)

Поддержи torrent.by
российских рублей
(300 российских рублей это 4$)

Обратная связь rss

End game ©