↑↓torrent.by
Поиск
Логин:  Регистрация
Пароль:

Уиллард / Willard (2003) WEB-DLRip-AVC от DoMiNo | P, P2 | Open Matte

download Скачать торрент-файл   magnet Магнитная ссылка Размер: 1.80 GB Добавлен: 2024-05-06 17:00
Пиры будут получены из сети DHT
Последний сидер был замечен 2024-05-06 17:00
Информация о фильме Название: Уиллард Оригинальное название: Willard Год выхода: 2003 Жанр: Ужасы, фантастика, триллер, драма Режиссер: Глен Морган В ролях: Криспин Гловер, Р. Ли Эрми, Лора Хэрринг, Джеки Барроуз, Ким МакКами, Уильям С. Тейлор, Эдвард Хорн, Гас Линч, Лаара Сэдик, Дэвид Паркер, Ти Олссон, Кристен Клоук О фильме: Застенчивый молодой человек по имени Уиллард является объектом насмешек со стороны его коллег по работе. Он совершенно не приспособлен к жизни и не умеет налаживать взаимоотношения. Его единственными настоящими друзьями являются две крысы, Бен и Сократ, которые постоянно путешествуют с ним, и, пожалуй, новая симпатичная сотрудница офиса. Личные и производственные неприятности приводят Уилларда на грань нервного срыва, а преднамеренное убийство Сократа, совершенное сотрудниками прямо на его рабочем месте превращает его жизнь в сплошную жажду мести. Уиллард внезапно обнаруживает, что при помощи оставшегося в живых Бена он может управлять легионами его злобных и прожорливых собратьев. По городу прокатывается волна странных и ужасных убийств Страна: США Студия: Hard Eight Pictures, New Line Cinema Продолжительность: 01:40:21 Перевод: Профессиональный многоголосый, профессиональный двухголосый Субтитры: Русские, английские Файл Формат: Matroska Качество: WEB-DLRip-AVC | Open Matte | Amazon *STARZ* Видео: 1024x576 (16x9) at 23.976 fps, x264@L4.1, ~1929 kbps Аудио #1: AC3, 2 ch, 192 Kbps - Русский (MVO ТК Россия) Аудио #2: AC3, 6 ch, 448 Kbps - Русский (DVO R5) Формат субтитров: softsub (SRT) ***Релиз от: -=DoMiNo=-
[+] M/Ix264 : frame I:1230 Avg QP:14.35 size: 57534 x264 : frame P:29459 Avg QP:15.06 size: 20894 x264 : frame B:113664 Avg QP:17.29 size: 6735 General Format : Matroska Format version : Version 4 File size : 1.80 GiB Duration : 1 h 40 min Overall bit rate : 2 571 kb/s Movie name : Уиллард.(2003).WEB-DLRip-AVC.O.M. Encoded date : UTC 2020-06-13 19:25:53 Writing application : mkvmerge v47.0.0 ('Black Flag') 64-bit Writing library : libebml v1.3.10 + libmatroska v1.5.2 Cover : Yes Attachments : cover.jpg / cover 2.jpg Video ID : 1 Format : AVC Format/Info : Advanced Video Codec Format profile : High@L4.1 Format settings : CABAC / 12 Ref Frames Format settings, CABAC : Yes Format settings, Reference : 12 frames Codec ID : V_MPEG4/ISO/AVC Duration : 1 h 40 min Bit rate : 1 929 kb/s Width : 1 024 pixels Height : 576 pixels Display aspect ratio : 16:9 Frame rate mode : Constant Frame rate : 23.976 (24000/1001) FPS Color space : YUV Chroma subsampling : 4:2:0 Bit depth : 8 bits Scan type : Progressive Bits/(Pixel*Frame) : 0.136 Stream size : 1.35 GiB (75%) Title : -=DoMiNo=- | Open Matte Writing library : x264 core 160 r3007 235ce61 Encoding settings : cabac=1 / ref=12 / deblock=1:-3:-3 / analyse=0x3:0x133 / me=umh / subme=10 / psy=1 / psy_rd=1.05:0.15 / mixed_ref=1 / me_range=32 / chroma_me=1 / trellis=2 / 8x8dct=1 / cqm=0 / deadzone=21,11 / fast_pskip=1 / chroma_qp_offset=-3 / threads=6 / lookahead_threads=1 / sliced_threads=0 / nr=0 / decimate=1 / interlaced=0 / bluray_compat=0 / constrained_intra=0 / bframes=11 / b_pyramid=2 / b_adapt=2 / b_bias=0 / direct=1 / weightb=1 / open_gop=0 / weightp=2 / keyint=250 / keyint_min=23 / scenecut=40 / intra_refresh=0 / rc_lookahead=60 / rc=crf / mbtree=0 / crf=19.5 / qcomp=0.60 / qpmin=0 / qpmax=69 / qpstep=4 / vbv_maxrate=50000 / vbv_bufsize=62500 / crf_max=0.0 / nal_hrd=none / filler=0 / ip_ratio=1.40 / pb_ratio=1.30 / aq=3:1.00 Language : English Default : Yes Forced : No Color range : Limited Color primaries : BT.709 Transfer characteristics : BT.709 Matrix coefficients : BT.709 Audio #1 ID : 2 Format : AC-3 Format/Info : Audio Coding 3 Commercial name : Dolby Digital Codec ID : A_AC3 Duration : 1 h 40 min Bit rate mode : Constant Bit rate : 192 kb/s Channel(s) : 2 channels Channel layout : L R Sampling rate : 48.0 kHz Frame rate : 31.250 FPS (1536 SPF) Compression mode : Lossy Stream size : 138 MiB (7%) Title : MVO Россия Language : Russian Service kind : Complete Main Default : Yes Forced : No Audio #2 ID : 3 Format : AC-3 Format/Info : Audio Coding 3 Commercial name : Dolby Digital Codec ID : A_AC3 Duration : 1 h 40 min Bit rate mode : Constant Bit rate : 448 kb/s Channel(s) : 6 channels Channel layout : L R C LFE Ls Rs Sampling rate : 48.0 kHz Frame rate : 31.250 FPS (1536 SPF) Compression mode : Lossy Stream size : 322 MiB (17%) Title : DVO R5 Language : Russian Service kind : Complete Main Default : No Forced : No Text #1 ID : 4 Format : UTF-8 Codec ID : S_TEXT/UTF8 Codec ID/Info : UTF-8 Plain Text Duration : 1 h 35 min Bit rate : 50 b/s Count of elements : 649 Stream size : 35.0 KiB (0%) Language : Russian Default : No Forced : No Text #2 ID : 5 Format : UTF-8 Codec ID : S_TEXT/UTF8 Codec ID/Info : UTF-8 Plain Text Duration : 1 h 34 min Bit rate : 29 b/s Count of elements : 869 Stream size : 20.4 KiB (0%) Language : English Default : No Forced : No Menu 00:00:00.000 : :Глава 01 00:05:30.000 : :Глава 02 00:11:00.000 : :Глава 03 00:16:30.000 : :Глава 04 00:22:00.000 : :Глава 05 00:27:30.000 : :Глава 06 00:33:00.000 : :Глава 07 00:38:30.000 : :Глава 08 00:44:00.000 : :Глава 09 00:49:30.000 : :Глава 10 00:55:00.000 : :Глава 11 01:00:30.000 : :Глава 12 01:06:00.000 : :Глава 13 01:11:30.000 : :Глава 14 01:17:00.000 : :Глава 15 01:22:30.000 : :Глава 16 01:28:00.000 : :Глава 17 01:33:30.000 : :Глава 18 01:39:00.000 : :Глава 19
[+] Примечание & Сравнения:Исходник видео WEB-DL Amazon STARZ (периодически появляется логотип). Open Matte-версия фильма имеет большее наполнение кадра по сравнению с Blu-ray. ***Сравнения => BD vs WEB-DL Open Matte
[+] Скриншоты

Всего файлов в раздаче: 1 
Уиллард.(2003).WEB-DLRip-AVC.O.M.[-=DoMiNo=-].mkv1.80 GB

Похожие раздачи по запросу - Уиллард
2024-05-05 magnet Уиллард / Willard (2003) BDRip 720p от msltel | P, P2, L2 4.51 GB ↑ 0 ↓ 0

Кто качает (только для создателя раздачи и модераторов): Локальные пиры отсутствуют

Комментарии


Зарегистрируйтесь чтобы добавить комментарий
Торрент клиент
byTorrent - программа для загрузки торрент-файлов.

Скачать byTorrent.exe (1,5 МБ)

Скачать byTorrent.zip (0,6 МБ)

Поддержи torrent.by
российских рублей
(300 российских рублей это 4$)

Обратная связь rss

End game ©