↑↓torrent.by
Поиск
Логин:  Регистрация
Пароль:

Смертельное оружие / Lethal Weapon (1987) BDRip-AVC от New-Team | D

download Скачать торрент-файл   magnet Магнитная ссылка Размер: 2.18 GB Добавлен: 2024-05-06 17:00
Пиры будут получены из сети DHT
Последний сидер был замечен 2024-05-17 18:06
Страна: США Производство: Silver Pictures Жанр: боевик, триллер, криминал Год выпуска: 1987 Продолжительность: 01:45:03 Перевод: Профессиональный (полное дублирование) Blu-Ray CEE Оригинальная аудиодорожка: английский Cубтитры: русский В ролях: Мэл Гибсон, Дэнни Гловер, Гэри Бьюзи, Митч Райан, Том Эткинс, Дарлен Лав, Трэйси Вульф, Джеки Суонсон, Дэймон Хайнс, Эбони Смит, Лусиа Нафф, Мэри Эллен Трейнор, Стив Кэхэн, Джек Тибо, Эд О'Росс, Густаф Винтас, Ол Леонг, Майкл Шейнер, Джим Джей Послоф, Гранд Л. Буш Подробнее об актерах Роли дублировали: Александр Новиков, Леонид Белозорович, Анатолий Кузнецов, Владимир Вихров, Сергей Чекан... Описание: Мартин Риггс - необычный полицейский. Его умение убивать и безрассудство самоубийцы сделали из него "Смертельное оружие" для любого противника. Или - напарника. Роджер Мертох - дружелюбный детектив-семьянин, с большим домом, любящей семьей и видами на пенсию, которую он не хочет потерять. Представьте себе шок Мертоха, когда он узнает, что его напарником будет парень, которому нечего терять: бешеный Мартин Риггс... Исходник: BDRemux 1080p Тип релиза: BDRip-AVC Контейнер: MKV Видео: 1024x576 (16:9), 23,976 кадра/сек, x264 core 164 r3182 ~ 1 947 кбит/сек, 0.138 бит/пиксель Аудио: 48 кГц, Dolby Digital AC3 5.1, 448 кбит/сек DUB Blu-Ray CEE Аудио: 48 кГц, Dolby Digital AC3 5.1, 448 кбит/сек Английский Оригинальная навигация по главам: есть Субтитры: SoftSub (srt) Раздача от:
[+] MediaInfo Общее Полное имя : Смертельное оружие.1987.BDRip-AVC__by_AVP_Studio.mkv Формат : Matroska Версия формата : Version 4 Размер файла : 2,18 Гбайт Продолжительность : 1 ч. 49 мин. Общий битрейт : 2 844 Кбит/сек Частота кадров : 23,976 кадра/сек Дата кодирования : 2024-05-06 07:55:59 UTC Программа кодирования : mkvmerge v83.0 ('Circle Of Friends') 64-bit Библиотека кодирования : libebml v1.4.5 + libmatroska v1.7.1 Видео Идентификатор : 1 Формат : AVC Формат/Информация : Advanced Video Codec Профиль формата : High@L4.1 Настройки формата : CABAC / 10 Ref Frames Параметр CABAC формата : Да Параметр RefFrames формата : 10 кадров Идентификатор кодека : V_MPEG4/ISO/AVC Продолжительность : 1 ч. 49 мин. Битрейт : 1 947 Кбит/сек Ширина : 1 024 пикселя Высота : 576 пикселей Соотношение сторон дисплея : 16:9 Режим частоты кадров : Постоянный Частота кадров : 23,976 (24000/1001) кадра/сек Цветовое пространство : YUV Цветовая субдискретизация : 4:2:0 Битовая глубина : 8 бит Тип развёртки : Прогрессивная Бит/(Пиксели*Кадры) : 0.138 Размер потока : 1,49 Гбайт (68%) Заголовок : Исходник BDRemux 1080p Библиотека кодирования : x264 core 164 r3182 be4f020 Параметры библиотеки кодирования : cabac=1 / ref=10 / deblock=1:-3:-2 / analyse=0x3:0x113 / me=umh / subme=10 / psy=1 / psy_rd=1.00:0.00 / mixed_ref=1 / me_range=32 / chroma_me=1 / trellis=2 / 8x8dct=1 / cqm=0 / deadzone=21,11 / fast_pskip=1 / chroma_qp_offset=-2 / threads=6 / lookahead_threads=1 / sliced_threads=0 / nr=0 / decimate=0 / interlaced=0 / bluray_compat=0 / constrained_intra=0 / bframes=8 / b_pyramid=2 / b_adapt=2 / b_bias=0 / direct=3 / weightb=1 / open_gop=0 / weightp=2 / keyint=240 / keyint_min=24 / scenecut=40 / intra_refresh=0 / rc_lookahead=40 / rc=2pass / mbtree=1 / bitrate=1947 / ratetol=1.0 / qcomp=0.60 / qpmin=0 / qpmax=69 / qpstep=4 / cplxblur=20.0 / qblur=0.5 / ip_ratio=1.40 / aq=1:1.00 Язык : Русский По умолчанию : Да Принудительно : Нет Аудио #1 Идентификатор : 2 Формат : AC-3 Формат/Информация : Audio Coding 3 Коммерческое название : Dolby Digital Идентификатор кодека : A_AC3 Продолжительность : 1 ч. 49 мин. Вид битрейта : Постоянный Битрейт : 448 Кбит/сек Канал(-ы) : 6 каналов Расположение каналов : L R C LFE Ls Rs Частота дискретизации : 48,0 КГц Частота кадров : 31,250 кадров/сек (1536 SPF) Метод сжатия : С потерями Размер потока : 351 Мбайт (16%) Заголовок : Профессиональный (дублированный) Blu-Ray CEE Язык : Русский По умолчанию : Да Принудительно : Нет AC3_metadata cmixlev : -3.0 dB surmixlev : -3 dB Аудио #2 Идентификатор : 3 Формат : AC-3 Формат/Информация : Audio Coding 3 Коммерческое название : Dolby Digital Идентификатор кодека : A_AC3 Продолжительность : 1 ч. 49 мин. Вид битрейта : Постоянный Битрейт : 448 Кбит/сек Канал(-ы) : 6 каналов Расположение каналов : L R C LFE Ls Rs Частота дискретизации : 48,0 КГц Частота кадров : 31,250 кадров/сек (1536 SPF) Метод сжатия : С потерями Размер потока : 351 Мбайт (16%) Заголовок : Оригинал Язык : Английский По умолчанию : Да Принудительно : Нет AC3_metadata cmixlev : -4.5 dB surmixlev : -6 dB Текст Идентификатор : 4 Формат : UTF-8 Идентификатор кодека : S_TEXT/UTF8 Идентификатор кодека/Информация : UTF-8 Plain Text Продолжительность : 1 ч. 45 мин. Битрейт : 70 бит/сек Частота кадров : 0,178 кадр/сек Число элементов : 1132 Размер потока : 55,1 КиБ (0%) Заголовок : SRT Язык : Русский По умолчанию : Нет Принудительно : Нет Меню 00:00:00.000 : Chapter 01 00:04:26.099 : Chapter 02 00:11:13.839 : Chapter 03 00:14:53.601 : Chapter 04 00:18:13.300 : Chapter 05 00:23:05.008 : Chapter 06 00:25:58.390 : Chapter 07 00:28:36.047 : Chapter 08 00:36:45.786 : Chapter 09 00:42:59.577 : Chapter 10 00:54:12.707 : Chapter 11 00:57:39.205 : Chapter 12 01:03:44.237 : Chapter 13 01:08:10.294 : Chapter 14 01:10:25.930 : Chapter 15 01:15:17.513 : Chapter 16 01:23:47.522 : Chapter 17 01:29:30.365 : Chapter 18 01:36:55.476 : Chapter 19 01:38:54.929 : Chapter 20 01:43:03.010 : Chapter 21 01:43:48.222 : Chapter 22 01:44:45.904 : Chapter 23
[+] Скриншоты

Всего файлов в раздаче: 1 
Смертельное оружие.1987.BDRip-AVC_[New-team]_by_AVP_Studio.mkv2.18 GB

Похожие раздачи по запросу - Смертельное
2024-05-18 magnet Смертельное оружие 4 / Lethal Weapon 4 (1998) BDRip 720p от New-Team | D, P, A 3.66 GB ↑ 0 ↓ 0
2024-05-17 magnet Смертельное оружие 4 / Lethal Weapon 4 (1998) BDRip-AVC от New-Team | D 1.77 GB ↑ 0 ↓ 0
2024-05-15 magnet Смертельное оружие 3 / Lethal weapon 3 (1992) BDRip-AVC от New-Team | D 1.46 GB ↑ 0 ↓ 0
2024-05-14 magnet Смертельное оружие 2 / Lethal weapon 2 (1989) BDRip-AVC от New-Team | D 1.46 GB ↑ 0 ↓ 0
2024-05-06 magnet Смертельное оружие / Lethal Weapon (1987) BDRip 720p от New-Team | D, P, A 6.55 GB ↑ 0 ↓ 0

Комментарии


Зарегистрируйтесь чтобы добавить комментарий
Торрент клиент
byTorrent - программа для загрузки торрент-файлов.

Скачать byTorrent.exe (1,5 МБ)

Скачать byTorrent.zip (0,6 МБ)

Поддержи torrent.by
российских рублей
(300 российских рублей это 4$)

Обратная связь rss

End game ©