↑↓torrent.by
Поиск
Логин:  Регистрация
Пароль:

Хитмен. Последнее дело / Нокс уходит / Knox Goes Away (2023) WEB-DLRip-AVC от ExKinoRay | D | Пифагор

download Скачать торрент-файл   magnet Магнитная ссылка Размер: 745.89 MB Добавлен: 2024-05-07 05:00
Пиры будут получены из сети DHT
Последний сидер был замечен 2024-05-07 05:00
Информация о фильме Название: Хитмен. Последнее дело Оригинальное название: Knox Goes Away Год выхода: 2023 Жанр: Триллер, криминал Режиссер: Майкл Китон В ролях: Майкл Китон, Джеймс Марсден, Аль Пачино, Марсия Гэй Харден, Йоанна Кулиг, Рэй МакКиннон, Деннис Дуган, Лила Лорен, Сьюзи Накамура, Чад Донелла, Джэй Полсон, Ивэн Шафран, Бенита Криста Нолл, Мариса Эчеверриа, Николь Реддинджер, Эдвин Гарсиа О фильме: Джон Нокс — профессиональный наемный убийца. Его деяния лежат на душе тяжким грузом, и Нокс планирует уйти в отставку. Однако появление на пороге сына, Майлза — шокированного, в крови, умоляющего помочь ему, — меняет все планы. Чтобы спасти сына, с которым Джон не общался много лет, и искупить свою вину, Нокс должен разработать сложную схему и запутать преследующую их полицию. Ситуацию осложняет то, что у Джона диагностировали быстро развивающуюся форму деменции, и теперь счет времени идет на часы… Страна: США Студия: Brookstreet Pictures, Sugar23 Продолжительность: 01:54:37 Перевод: Дублированный (официальный) | ПИФАГОР Файл Формат: MKV Качество: WEB-DLRip-AVC Видео: MPEG-4 AVC, 698x348, 824 Кбит/с Аудио: AAC-HE, 2 ch, 84 Кбит/с Субтитры: Нет
[+] MIОбщее Уникальный идентификатор : 57667432659579375937787984373251673598 (0x2B6257F212DF57909C3D732BF49D8DFE) Полное имя : D:MOVIESKnox.Goes.Away.2023.WEB-DLRip-AVC.ExKinoRay.mkv Формат : Matroska Версия формата : Version 4 Размер файла : 746 Мбайт Продолжительность : 1 ч. 54 мин. Общий битрейт : 910 Кбит/сек Частота кадров : 23,976 кадра/сек Дата кодирования : 2024-05-06 17:35:40 UTC Программа кодирования : mkvmerge v45.0.0 ('Heaven in Pennies') 64-bit Библиотека кодирования : libebml v1.3.10 + libmatroska v1.5.2 Видео Идентификатор : 1 Формат : AVC Формат/Информация : Advanced Video Codec Профиль формата : High@L4.1 Настройки формата : CABAC / 11 Ref Frames Параметр CABAC формата : Да Параметр RefFrames формата : 11 кадров Идентификатор кодека : V_MPEG4/ISO/AVC Продолжительность : 1 ч. 54 мин. Битрейт : 824 Кбит/сек Ширина : 698 пикселей Высота : 348 пикселей Соотношение сторон дисплея : 2,006 Режим частоты кадров : Постоянный Частота кадров : 23,976 (24000/1001) кадра/сек Цветовое пространство : YUV Цветовая субдискретизация : 4:2:0 Битовая глубина : 8 бит Тип развёртки : Прогрессивная Бит/(Пиксели*Кадры) : 0.141 Размер потока : 676 Мбайт (91%) Библиотека кодирования : x264 core 164 r3107 a8b68eb Параметры библиотеки кодирования : cabac=1 / ref=11 / deblock=1:-2:-1 / analyse=0x3:0x133 / me=umh / subme=10 / psy=1 / psy_rd=1.05:0.12 / mixed_ref=1 / me_range=32 / chroma_me=1 / trellis=2 / 8x8dct=1 / cqm=0 / deadzone=21,11 / fast_pskip=0 / chroma_qp_offset=-3 / threads=6 / lookahead_threads=1 / sliced_threads=0 / nr=0 / decimate=0 / interlaced=0 / bluray_compat=0 / constrained_intra=0 / bframes=12 / b_pyramid=2 / b_adapt=2 / b_bias=0 / direct=3 / weightb=1 / open_gop=0 / weightp=2 / keyint=240 / keyint_min=23 / scenecut=40 / intra_refresh=0 / rc=2pass / mbtree=0 / bitrate=824 / ratetol=1.0 / qcomp=0.60 / qpmin=0 / qpmax=69 / qpstep=4 / cplxblur=20.0 / qblur=0.5 / ip_ratio=1.40 / pb_ratio=1.30 / aq=3:1.00 Язык : Английский По умолчанию : Да Принудительно : Нет Цветовой диапазон : Limited Основные цвета : BT.709 Характеристики трансфера : BT.709 Коэффициенты матрицы : BT.709 Аудио Идентификатор : 2 Формат : AAC LC SBR Формат/Информация : Advanced Audio Codec Low Complexity with Spectral Band Replication Коммерческое название : HE-AAC Настройки формата : Explicit Идентификатор кодека : A_AAC-2 Продолжительность : 1 ч. 54 мин. Битрейт : 84,0 Кбит/сек Канал(-ы) : 2 канала Расположение каналов : L R Частота дискретизации : 48,0 КГц Частота кадров : 23,438 кадра/сек (2048 SPF) Метод сжатия : С потерями Задержка видео : 31 мс. Размер потока : 68,9 Мбайт (9%) Язык : Русский По умолчанию : Да Принудительно : Нет Меню 00:00:00.000 : Chapter 1 00:09:43.375 : Chapter 2 00:17:46.649 : Chapter 3 00:29:17.799 : Chapter 4 00:42:21.207 : Chapter 5 00:51:17.869 : Chapter 6 00:58:59.831 : Chapter 7 01:05:40.523 : Chapter 8 01:16:00.560 : Chapter 9 01:27:11.648 : Chapter 10 01:37:49.369 : Chapter 11 01:48:33.179 : Chapter 12
[+] Скриншоты

Всего файлов в раздаче: 1 
Knox.Goes.Away.2023.WEB-DLRip-AVC.ExKinoRay.mkv745.89 MB

Похожие раздачи по запросу - Хитмен
2024-05-11 magnet Хитмен. Последнее дело / Нокс уходит / Knox Goes Away (2023) WEB-DL 1080p от селезень | D | Кинопоиск HD 3.60 GB ↑ 0 ↓ 1
2024-05-07 magnet Хитмен. Последнее дело / Нокс уходит / Knox Goes Away (2023) WEB-DL 1080p | D | Пифагор 7.13 GB ↑ 1 ↓ 0
2024-05-07 magnet Хитмен. Последнее дело / Нокс уходит / Knox Goes Away (2023) WEB-DLRip от MegaPeer | D | Пифагор 1.46 GB ↑ 0 ↓ 0
2024-05-07 magnet Хитмен. Последнее дело / Нокс уходит / Knox Goes Away (2023) WEB-DL 2160р от Scarabey | 4K | SDR | D | Пифагор, Soundmasters 12.67 GB ↑ 0 ↓ 0
2024-05-07 magnet Хитмен. Последнее дело / Нокс уходит / Knox Goes Away (2023) WEB-DLRip 720p от DoMiNo & селезень | D, P | Пифагор, Soundmasters 3.34 GB ↑ 0 ↓ 0
2024-05-05 magnet Хитмен. Последнее дело / Knox Goes Away (2023) WEB-DLRip от MegaPeer | D | Soundmasters 1.46 GB ↑ 1 ↓ 0
2024-05-04 magnet Хитмен. Последнее дело / Knox Goes Away (2023) WEB-DL 1080p от New-Team | D | Soundmasters 6.98 GB ↑ 0 ↓ 0

Комментарии


Зарегистрируйтесь чтобы добавить комментарий
Торрент клиент
byTorrent - программа для загрузки торрент-файлов.

Скачать byTorrent.exe (1,5 МБ)

Скачать byTorrent.zip (0,6 МБ)

Поддержи torrent.by
российских рублей
(300 российских рублей это 4$)

Обратная связь rss

End game ©