↑↓torrent.by
Поиск
Логин:  Регистрация
Пароль:

Неудержимые / Riders (2002) WEB-DL 1080p от ivandubskoj | D

download Скачать торрент-файл   magnet Магнитная ссылка Размер: 3.34 GB Добавлен: 2024-05-07 05:00
Пиры будут получены из сети DHT
Последний сидер был замечен 2024-05-07 05:00
Информация о фильме Название: Неудержимые Оригинальное название: Riders Год выхода: 2002 Жанр: Боевик, триллер, криминал, приключения Режиссёр: Жерар Пирес В ролях: Стивен Дорфф, Наташа Хенстридж, Брюс Пэйн, Стивен Беркофф, Кле Беннет, Стивен МакКарти, Карен Клише, Андреас Апергис, Том МакКамус, Бретт Уотсон О фильме: Нет такого вида спорта, который был бы недоступен Слиму, Отису, Фрэнку и Алекс. Но им милее то, что щекочет нервы и стимулирует выброс адреналина. Прыгнуть с моста, упасть в море, сидя в грузовике - нет проблем! А уж про роликовый слалом по запруженным машинам и говорить нечего. Только просто рисковать жизнью парням не интересно. И все это они делают, предварительно обчистив очередной банк. В конце концов, лидер команды Слим, принимает решение о том, что пора завязывать. Он понимает, что последняя операция будет очень не простая, вся полиция города будет у них на хвосте, и это еще не все... Выпущено: Франция, Великобритания, Канада, Trancefilm-Mandarin-Spice Factory Production Продолжительность: 01:20:25 Перевод: Дублированный (Мосфильм-Мастер) Оригинальная аудио-дорожка: Английская Файл Контейнер: MKV Качество: WEB-DL 1080p Видео: MPEG-4 AVC, ~ 5000 Кбит/с, 1920x816, 25 кадр/с Аудио 1: Русский, AC3, 48000 Гц, 448 Кбит/с, 6 каналов (5.1) - DUB Аудио 2: Английский, AC3, 48000 Гц, 448 Кбит/с, 6 каналов (5.1) - Оригинал Субтитры: Русские, украинские, английские (полные, SRT) Навигация по главам: Есть
[+] MediaInfoGeneral Unique ID: 248503766625682430091983204119854731206 (0xBAF415A4A89EA0B09D4ABFFB54F04FC6) Complete name: Riders.2002.WEB-DL.1080p.by.ivandubskoj.mkv Format: Matroska File size: 3.34 GiB Duration: 1h 20mn Overall bit rate: 5 953 Kbps Movie name: Riders (2002) WEB-DL 1080p by ivandubskoj Encoded date: UTC 2024-05-06 18:24:05 Writing application: mkvmerge v7.8.0 ('River Man') 32bit built on Apr 3 2015 12:11:22 Writing library: libebml v1.3.1 + libmatroska v1.4.2 Video ID: 1 Format: AVC Format/Info: Advanced Video Codec Format profile: High@L4.0 Format settings, CABAC: Yes Format settings, ReFrames: 4 frames Format settings, GOP: M=5, N=25 Codec ID: V_MPEG4/ISO/AVC Duration: 1h 20mn Bit rate: 4 939 Kbps Width: 1 920 pixels Height: 816 pixels Display aspect ratio: 2.35:1 Frame rate: 25.000 fps Color space: YUV Chroma subsampling: 4:2:0 Bit depth: 8 bits Scan type: Progressive Bits/(Pixel*Frame): 0.126 Stream size: 2.77 GiB (83%) Title: Riders (2002) WEB-DL 1080p by ivandubskoj Language: English Audio #1 ID: 2 Format: AC-3 Format/Info: Audio Coding 3 Mode extension: CM (complete main) Codec ID: A_AC3 Duration: 1h 20mn Bit rate mode: Constant Bit rate: 448 Kbps Channel(s): 6 channels Channel positions: Front: L C R, Side: L R, LFE Sampling rate: 48.0 KHz Bit depth: 16 bits Compression mode: Lossy Stream size: 258 MiB (8%) Title: DUB Language: Russian Audio #2 ID: 3 Format: AC-3 Format/Info: Audio Coding 3 Mode extension: CM (complete main) Codec ID: A_AC3 Duration: 1h 20mn Bit rate mode: Constant Bit rate: 448 Kbps Channel(s): 6 channels Channel positions: Front: L C R, Side: L R, LFE Sampling rate: 48.0 KHz Bit depth: 16 bits Compression mode: Lossy Stream size: 258 MiB (8%) Title: Original Language: English Text #1 ID: 4 Format: UTF-8 Codec ID: S_TEXT/UTF8 Codec ID/Info: UTF-8 Plain Text Title: Full Language: Russian Text #2 ID: 5 Format: UTF-8 Codec ID: S_TEXT/UTF8 Codec ID/Info: UTF-8 Plain Text Title: Full Language: Ukrainian Text #3 ID: 6 Format: UTF-8 Codec ID: S_TEXT/UTF8 Codec ID/Info: UTF-8 Plain Text Title: Full Language: English Menu 00:00:00.000: en:Chapter 1 00:05:40.750: en:Chapter 2 00:12:27.740: en:Chapter 3 00:17:05.017: en:Chapter 4 00:30:05.797: en:Chapter 5 00:34:17.047: en:Chapter 6 00:43:37.608: en:Chapter 7 00:54:00.230: en:Chapter 8 00:57:17.427: en:Chapter 9 01:04:10.830: en:Chapter 10 01:09:41.587: en:Chapter 11 01:10:14.629: en:Chapter 12
[+] Скриншоты
Релиз от: ivandubskoj

Всего файлов в раздаче: 1 
Riders.2002.WEB-DL.1080p.by.ivandubskoj.mkv3.34 GB

Похожие раздачи по запросу - Неудержимые
2024-05-06 magnet Неудержимые / Riders (2002) WEB-DL 720p от ivandubskoj | D 2.22 GB ↑ 0 ↓ 0
2023-12-06 magnet Неудержимые 4 / Expend4bles (2023) BDRip 1080p от Generalfilm | D 7.64 GB ↑ 0 ↓ 0
2023-11-21 magnet Неудержимые 4 / Expend4bles (2023) HDRip-AVC от DoMiNo & селезень | D, P 2.59 GB ↑ 0 ↓ 0
2023-11-21 magnet Неудержимые 4 / Expend4bles (2023) UHD BDRemux 2160p от селезень | 4K | HDR | Dolby Vision Profile 8 | P 1К53.45 GB ↑ 0 ↓ 0
2023-10-18 magnet Неудержимые 4 / Expend4bles (2023) WEB-DLRip 720p от DoMiNo & селезень | P | TVShows 2.82 GB ↑ 0 ↓ 0
2023-10-17 magnet Неудержимые 4 / Expend4bles (2023) WEB-DLRip от New-Team | TVShows 1.46 GB ↑ 0 ↓ 0
2023-10-17 magnet Неудержимые 4 / Expend4bles (2023) WEB-DL 1080p | P | TVShows 7.16 GB ↑ 0 ↓ 0

Кто качает (только для создателя раздачи и модераторов): Локальные пиры отсутствуют

Комментарии


Зарегистрируйтесь чтобы добавить комментарий
Торрент клиент
byTorrent - программа для загрузки торрент-файлов.

Скачать byTorrent.exe (1,5 МБ)

Скачать byTorrent.zip (0,6 МБ)

Поддержи torrent.by
российских рублей
(300 российских рублей это 4$)

Обратная связь rss

End game ©