↑↓torrent.by
Поиск
Логин:  Регистрация
Пароль:

Хитмен. Последнее дело / Нокс уходит / Knox Goes Away (2023) WEB-DLRip 720p от DoMiNo & селезень | D, P | Пифагор, Soundmasters

download Скачать торрент-файл   magnet Магнитная ссылка Размер: 3.34 GB Добавлен: 2024-05-07 05:00
Пиры будут получены из сети DHT
Последний сидер был замечен 2024-05-18 19:07
Информация о фильме Название: Хитмен. Последнее дело Оригинальное название: Knox Goes Away Год выхода: 2023 Жанр: Триллер, криминал Режиссер: Майкл Китон В ролях: Майкл Китон, Аль Пачино, Марша Гей Харден, Джеймс Марсден, Джоанна Кулиг, Рэй МакКиннон, Дэннис Дуган, Лила Лорен, Сьюзи Накамура, Чад Донелла О фильме: Нокс - профессиональный киллер. Последние годы своей жизни он мечтал лишь об одном - забыть о том, что совершил. Но сейчас, когда деменция уничтожает его личность, хитмэну придётся приложить все силы, чтобы спасти от рук продажных копов своего сына. Счёт идет на часы. Он уже не помнит, кто перед ним, друг или враг, лишь указательный палец всё так же уверенно спускает курок. Страна: США, Brookstreet Pictures, Sugar23, Three Point Capital (TPC) Продолжительность: 01:54:37 Перевод 1: Дублированный (официальный) | ПИФАГОР Роли дублировали: Владимир Зайцев, Валерий Сторожик, Константин Карасик, Ульяна Чеботарь, Анастасия Лапина, Глеб Глушенков, Александр Хорлин, Даниил Эльдаров, Ирина Киреева, Дмитрий Лунёв, Владимир Ерёмин, Нана Саркисян, Ольга Зубкова, Александр Лаврентьев, Алексей Терехов, Анатолий Нокс, Валентина Варлашина, Мария Данилова, Юлия Иванова Перевод 2: Дублированный (неофициальный) | Soundmasters Перевод 3: Профессиональный (многоголосый, закадровый) Субтитры: Английские (Full, SDH) Файл Формат: Matroska Качество: WEB-DLRip 720p Видео: 1280x640 at 23.976 fps, x264@L4.1, ~2949 kbps Аудио 1: AC3, 6 ch, ~384 kbps - | Русский | | DUB | ПИФАГОР Аудио 2: AC3, 2 ch, ~192 kbps - | Русский | | DUB | Soundmasters Аудио 3: AC3, 2 ch, ~192 kbps - | Русский | | MVO Аудио 4: AC3, 6 ch, ~448 kbps - | Английский | | Original Формат субтитров: softsub (SRT) ***Рип от: -=DoMiNo=-
[+] M/IGeneral Unique ID : 24454754528877022817464520948117088710 (0x1265D07CB6B66C66CBCDF28D3C2329C6) Complete name : S:Knox.Goes.Away.2023.D.P.WEB-DLRip.720p.x264.seleZen.mkv Format : Matroska Format version : Version 4 File size : 3.34 GiB Duration : 1 h 54 min Overall bit rate : 4 168 kb/s Frame rate : 23.976 FPS Movie name : Knox.Goes.Away.2023.D.P.WEB-DLRip.720p.x264.seleZen Encoded date : 2024-05-06 18:14:29 UTC Writing application : mkvmerge v84.0 ('Sleeper') 64-bit Writing library : libebml v1.4.5 + libmatroska v1.7.1 Cover : Yes Attachments : cover.jpg / small_cover.jpg Video ID : 1 Format : AVC Format/Info : Advanced Video Codec Format profile : High@L4.1 Format settings : CABAC / 10 Ref Frames Format settings, CABAC : Yes Format settings, Reference : 10 frames Codec ID : V_MPEG4/ISO/AVC Duration : 1 h 54 min Bit rate : 2 949 kb/s Width : 1 280 pixels Height : 640 pixels Display aspect ratio : 2.000 Frame rate mode : Constant Frame rate : 23.976 (24000/1001) FPS Color space : YUV Chroma subsampling : 4:2:0 Bit depth : 8 bits Scan type : Progressive Bits/(Pixel*Frame) : 0.150 Stream size : 2.36 GiB (71%) Title : -=DoMiNo=- Writing library : x264 core 164 r3190 -DoMiNo Encoding settings : cabac=1 / ref=10 / deblock=1:-2:-1 / analyse=0x3:0x133 / me=umh / subme=10 / psy=1 / psy_rd=1.02:0.03 / mixed_ref=1 / me_range=32 / chroma_me=1 / trellis=2 / 8x8dct=1 / cqm=0 / deadzone=21,11 / fast_pskip=0 / chroma_qp_offset=-3 / threads=20 / lookahead_threads=5 / sliced_threads=0 / nr=0 / decimate=0 / interlaced=0 / bluray_compat=0 / constrained_intra=0 / bframes=12 / b_pyramid=2 / b_adapt=2 / b_bias=0 / direct=1 / weightb=1 / open_gop=0 / weightp=2 / keyint=240 / keyint_min=23 / scenecut=40 / intra_refresh=0 / rc_lookahead=60 / rc=crf / mbtree=0 / crf=18.0 / qcomp=0.60 / qpmin=0 / qpmax=69 / qpstep=4 / vbv_maxrate=50000 / vbv_bufsize=62500 / crf_max=0.0 / nal_hrd=none / filler=0 / ip_ratio=1.40 / pb_ratio=1.30 / aq=3:0.80 Language : English Default : Yes Forced : No Color range : Limited Color primaries : BT.709 Transfer characteristics : BT.709 Matrix coefficients : BT.709 Audio #1 ID : 2 Format : AC-3 Format/Info : Audio Coding 3 Commercial name : Dolby Digital Codec ID : A_AC3 Duration : 1 h 54 min Bit rate mode : Constant Bit rate : 384 kb/s Channel(s) : 6 channels Channel layout : L R C LFE Ls Rs Sampling rate : 48.0 kHz Frame rate : 31.250 FPS (1536 SPF) Compression mode : Lossy Stream size : 315 MiB (9%) Title : Дублированный | ПИФАГОР Language : Russian Service kind : Complete Main Default : Yes Forced : No Dialog Normalization : -31 dB cmixlev : -3.0 dB surmixlev : -3 dB dialnorm_Average : -31 dB dialnorm_Minimum : -31 dB dialnorm_Maximum : -31 dB Audio #2 ID : 3 Format : AC-3 Format/Info : Audio Coding 3 Commercial name : Dolby Digital Codec ID : A_AC3 Duration : 1 h 54 min Bit rate mode : Constant Bit rate : 192 kb/s Channel(s) : 2 channels Channel layout : L R Sampling rate : 48.0 kHz Frame rate : 31.250 FPS (1536 SPF) Compression mode : Lossy Stream size : 157 MiB (5%) Title : Дублированный | Soundmasters Language : Russian Service kind : Complete Main Default : No Forced : No Dialog Normalization : -31 dB dialnorm_Average : -31 dB dialnorm_Minimum : -31 dB dialnorm_Maximum : -31 dB Audio #3 ID : 4 Format : AC-3 Format/Info : Audio Coding 3 Commercial name : Dolby Digital Codec ID : A_AC3 Duration : 1 h 54 min Bit rate mode : Constant Bit rate : 192 kb/s Channel(s) : 2 channels Channel layout : L R Sampling rate : 48.0 kHz Frame rate : 31.250 FPS (1536 SPF) Compression mode : Lossy Stream size : 157 MiB (5%) Title : MVO Language : Russian Service kind : Complete Main Default : No Forced : No Dialog Normalization : -31 dB compr : -0.28 dB dialnorm_Average : -31 dB dialnorm_Minimum : -31 dB dialnorm_Maximum : -31 dB Audio #4 ID : 5 Format : AC-3 Format/Info : Audio Coding 3 Commercial name : Dolby Digital Codec ID : A_AC3 Duration : 1 h 54 min Bit rate mode : Constant Bit rate : 448 kb/s Channel(s) : 6 channels Channel layout : L R C LFE Ls Rs Sampling rate : 48.0 kHz Frame rate : 31.250 FPS (1536 SPF) Compression mode : Lossy Stream size : 367 MiB (11%) Title : Original Language : English Service kind : Complete Main Default : No Forced : No Dialog Normalization : -31 dB cmixlev : -4.5 dB surmixlev : -6 dB dialnorm_Average : -31 dB dialnorm_Minimum : -31 dB dialnorm_Maximum : -31 dB Text #1 ID : 6 Format : UTF-8 Codec ID : S_TEXT/UTF8 Codec ID/Info : UTF-8 Plain Text Duration : 1 h 45 min Bit rate : 52 b/s Frame rate : 0.237 FPS Count of elements : 1500 Stream size : 40.9 KiB (0%) Language : English Default : No Forced : No Text #2 ID : 7 Format : UTF-8 Codec ID : S_TEXT/UTF8 Codec ID/Info : UTF-8 Plain Text Duration : 1 h 47 min Bit rate : 57 b/s Frame rate : 0.261 FPS Count of elements : 1690 Stream size : 45.1 KiB (0%) Title : SDH Language : English Default : No Forced : No Menu 00:00:00.000 : en:Scene 01 01:48:36.541 : en:End Credits
Релиз: Присоединяйся к: Кликай на баннеры.

Всего файлов в раздаче: 1 
Knox.Goes.Away.2023.D.P.WEB-DLRip.720p.x264.seleZen.mkv3.34 GB

Похожие раздачи по запросу - Хитмен
2024-05-11 magnet Хитмен. Последнее дело / Нокс уходит / Knox Goes Away (2023) WEB-DL 1080p от селезень | D | Кинопоиск HD 3.60 GB ↑ 0 ↓ 0
2024-05-07 magnet Хитмен. Последнее дело / Нокс уходит / Knox Goes Away (2023) WEB-DL 1080p | D | Пифагор 7.13 GB ↑ 2 ↓ 2
2024-05-07 magnet Хитмен. Последнее дело / Нокс уходит / Knox Goes Away (2023) WEB-DLRip от MegaPeer | D | Пифагор 1.46 GB ↑ 0 ↓ 1
2024-05-07 magnet Хитмен. Последнее дело / Нокс уходит / Knox Goes Away (2023) WEB-DL 2160р от Scarabey | 4K | SDR | D | Пифагор, Soundmasters 12.67 GB ↑ 0 ↓ 0
2024-05-07 magnet Хитмен. Последнее дело / Нокс уходит / Knox Goes Away (2023) WEB-DLRip-AVC от ExKinoRay | D | Пифагор 745.89 MB ↑ 0 ↓ 0
2024-05-05 magnet Хитмен. Последнее дело / Knox Goes Away (2023) WEB-DLRip от MegaPeer | D | Soundmasters 1.46 GB ↑ 0 ↓ 0
2024-05-04 magnet Хитмен. Последнее дело / Knox Goes Away (2023) WEB-DL 1080p от New-Team | D | Soundmasters 6.98 GB ↑ 0 ↓ 0

Кто качает (только для создателя раздачи и модераторов): Локальные пиры отсутствуют

Комментарии


Зарегистрируйтесь чтобы добавить комментарий
Торрент клиент
byTorrent - программа для загрузки торрент-файлов.

Скачать byTorrent.exe (1,5 МБ)

Скачать byTorrent.zip (0,6 МБ)

Поддержи torrent.by
российских рублей
(300 российских рублей это 4$)

Обратная связь rss

End game ©