↑↓torrent.by
Поиск
Логин:  Регистрация
Пароль:

Костолом / Ruthless (2023) BDRip от New-Team | D

download Скачать торрент-файл   magnet Магнитная ссылка Размер: 1.46 GB Раздают: 0 Качают: 1 Добавлен: 2024-05-07 05:00
Пиры будут получены из сети DHT
Последний сидер был замечен вчера в 21:36
Костолом / Ruthless Год выпуска: 2023 Выпущено: США, Al Bravo Films, AXI-ON, BondIt, Premiere Entertainment Group, Revisilagi Vfx Studio Жанр: боевик, триллер Режиссер: Арт Камачо / Art Camacho В ролях: Дермот Малруни, Джефф Фэйи, Ману Интирэйми, Тексас Бэттл, Мелисса Диас, Анджелика ДеЧавес, Маурисио Мендоса, Тонанцин Эспарса, Нико Фостер, Кесия Роблз О фильме: В жизни Гарри произошла трагедия: его дочь была похищена и убита. Разочаровавшись в правосудии, он решает действовать самостоятельно. Гарри выходит на след банды, связанной с похищениями девушек, и собирается мстить. А методы у него жесткие - сначала ломает кости, потом задает вопросы. Продолжительность: 01:32:45 Перевод: Профессиональный (полное дублирование) | Leff Sound Субтитры: Нет. Раздача от: Автор релиза: JNS82. Формат: AVI Качество: BDRip | Ruthless.2023.1080p.BluRay.REMUX.AVC.DTS-HD.MA.5.1-HDT Видео: 720x304 (2.35:1), 23.976 fps, XviD MPEG-4 ~ 1865 kbps avg, 0.355 bit/pixel, build 73 Аудио: 48 kHz, AC3 Dolby Digital, 3/2 (L,C,R,l,r) + LFE ch, ~ 384 kbps | RUS |
[+] MediaInfoОбщее Полное имя : D:TorrentsRuthless.2023.BDRip_от New-Team_by_JNS82.avi Формат : AVI Формат/Информация : Audio Video Interleave Размер файла : 1,46 Гбайт Продолжительность : 1 ч. 32 м. Общий поток : 2 257 Кбит/сек Программа кодирования : VirtualDubMod 1.5.10.2 (build 2540/release) Библиотека кодирования : VirtualDubMod build 2540/release Видео Идентификатор : 0 Формат : MPEG-4 Visual Профиль формата : Advanced Simple@L5 Настройки формата : BVOP1 / Custom Matrix Параметр BVOP формата : 1 Параметр QPel формата : Нет Параметр GMC формата : Без точки перехода Параметр матрицы формата : Выборочная Идентификатор кодека : XVID Идентификатор кодека/Подсказка : XviD Продолжительность : 1 ч. 32 м. Битрейт : 1 865 Кбит/сек Ширина : 720 пикселей Высота : 304 пикселя Соотношение сторон : 2,35:1 Частота кадров : 23,976 (24000/1001) кадра/сек Цветовое пространство : YUV Субдискретизация насыщенности : 4:2:0 Битовая глубина : 8 бит Тип развёртки : Прогрессивная Метод сжатия : С потерями Бит/(Пиксели*Кадры) : 0.355 Размер потока : 1,21 Гбайт (83%) Библиотека кодирования : XviD 73 Аудио Идентификатор : 1 Формат : AC-3 Формат/Информация : Audio Coding 3 Коммерческое название : Dolby Digital Идентификатор кодека : 2000 Продолжительность : 1 ч. 32 м. Вид битрейта : Постоянный Битрейт : 384 Кбит/сек Каналы : 6 каналов Channel layout : L R C LFE Ls Rs Частота : 48,0 КГц Частота кадров : 31,250 кадров/сек (1536 SPF) Метод сжатия : С потерями Размер потока : 254 Мбайт (17%) Выравнивание : Разделение по промежуткам Продолжительность промежутка : 42 мс. (1,00 видеокадр) Время предзагрузки промежутка : 500 мс. Service kind : Complete Main

Всего файлов в раздаче: 1 
Ruthless.2023.BDRip_от New-Team_by_JNS82.avi1.46 GB

Похожие раздачи по запросу - Костолом
2024-05-10 magnet Костолом / Ruthless (2023) BDRip 1080p от Generalfilm | D 5.50 GB ↑ 0 ↓ 1
2024-05-09 magnet Костолом / Ruthless (2023) BDRip 1080p от селезень | D | Leff Sound | КинопоискHD 8.52 GB ↑ 1 ↓ 0
2024-05-09 magnet Костолом / Ruthless (2023) BDRemux 1080p от селезень | D | Leff Sound | КинопоискHD 21.17 GB ↑ 0 ↓ 0
2024-05-09 magnet Костолом / Ruthless (2023) BDRip 1080p от New-Team | D 7.21 GB ↑ 0 ↓ 0
2024-05-09 magnet Костолом / Ruthless (2023) BDRip 720p от DoMiNo & селезень | D | Leff Sound | КинопоискHD 4.45 GB ↑ 0 ↓ 0
2024-01-05 magnet Костолом / Ruthless (2023) WEB-DLRip от New-Team | D 1.46 GB ↑ 0 ↓ 0

Кто качает (только для создателя раздачи и модераторов):
ПользовательIP:портОтдалПринялОстатокСидируетТоррент клиентОбновился
1 Аноним 118.163.136.178:34969 3.12 MB 1.46 GB 1.38 GB нет -qB4390- 14:22 2024-05-21

Комментарии


Зарегистрируйтесь чтобы добавить комментарий
Торрент клиент
byTorrent - программа для загрузки торрент-файлов.

Скачать byTorrent.exe (1,5 МБ)

Скачать byTorrent.zip (0,6 МБ)

Поддержи torrent.by
российских рублей
(300 российских рублей это 4$)

Обратная связь rss

End game ©