↑↓torrent.by
Поиск
Логин:  Регистрация
Пароль:

Меч короля / Bastarden / The Promised Land (2023) BDRip 1080p от New-Team | D, A

download Скачать торрент-файл   magnet Магнитная ссылка Размер: 13.66 GB Раздают: 0 Качают: 2 Добавлен: 2024-05-07 05:00
Пиры будут получены из сети DHT
Последний сидер был замечен 2024-05-14 15:53
Меч короля / Bastarden / The Promised Land Год выпуска: 2023 Выпущено: Дания, Швеция, Норвегия, Германия, Zentropa Entertainments, Zentropa International Berlin, Zentropa International Sweden Жанр: драма, биография, история Режиссер: Николай Арсель / Nikolaj Arcel В ролях: Мадс Миккельсен, Аманда Коллин, Густав Линд, Кристин Куят Торп, Якоб Ульрик Ломанн, Мортен Хи Андерсен, Сёрен Маллинг, Магнус Креппер, Томас В. Габриэльссон, Феликс Крамер О фильме: Датский король отправляет своего лучшего рыцаря обуздать дикие земли, покуда простирается его длань. Но здесь, за стенами высоких замков, свои законы. Местные князья не спешат подчиняться королевскому наместнику. Они сами решают, кто будет возделывать их земли, а кто упокоится в них навсегда. Конфликт усугубляет прекрасная дева, обещанная отцом местному феодалу. Оставить её — значит потерять честь. Спасти — обречь себя на верную гибель. Но там, где опытный политик отступает, истинный рыцарь обнажает меч. Продолжительность: 02:07:02 Перевод (ы): #1: Дублированный (неофициальный) | Soundmasters #2: Авторский (одноголосый, закадровый) | Ю. Сербин | Tnx.KinoPub Субтитры: Английские Раздача от: Автор релиза: JNS82. Формат: MKV Качество: BDRip1080p Видео: MPEG-4 AVC, 14.2 Мбит/с, 1920x804 Аудио #1: AC3, 2 ch, 192 Кбит/с | RUS | DUB Аудио #2: AC3, 6 ch, 384 Кбит/с | RUS | AVO Аудио #3: AC3, 6 ch, 640 Кбит/с | DAN |
[+] MediaInfoОбщее Уникальный идентификатор : 233198519104390963811382692491797077562 (0xAF7066AE07BD0B4C8809E33833721E3A) Полное имя : D:TorrentsBastarden.2023.BDRip1080p_от New-Team.mkv Формат : Matroska Версия формата : Version 4 Размер файла : 13,7 Гбайт Продолжительность : 2 ч. 7 м. Общий поток : 15,4 Мбит/сек Название фильма : Bastarden.2023.BDRip1080p_от New-Team Дата кодирования : UTC 2024-05-04 08:43:11 Программа кодирования : mkvmerge v79.0 ('Funeral Pyres') 64-bit Библиотека кодирования : libebml v1.4.4 + libmatroska v1.7.1 Видео Идентификатор : 1 Формат : AVC Формат/Информация : Advanced Video Codec Профиль формата : High@L4.1 Настройки формата : CABAC / 4 Ref Frames Параметр CABAC формата : Да Параметр RefFrames формата : 4 кадра Идентификатор кодека : V_MPEG4/ISO/AVC Продолжительность : 2 ч. 7 м. Битрейт : 14,2 Мбит/сек Ширина : 1 920 пикселей Высота : 804 пикселя Соотношение сторон : 2,40:1 Режим частоты кадров : Постоянный Частота кадров : 24,000 кадра/сек Цветовое пространство : YUV Субдискретизация насыщенности : 4:2:0 Битовая глубина : 8 бит Тип развёртки : Прогрессивная Бит/(Пиксели*Кадры) : 0.382 Размер потока : 12,6 Гбайт (92%) Библиотека кодирования : x264 core 164 r3144+47 7d6367c tMod@devel Настройки программы : cabac=1 / ref=4 / deblock=1:-3:-3 / analyse=0x3:0x133 / me=umh / subme=11 / psy=1 / fade_compensate=0.00 / psy_rd=1.00:0.00 / mixed_ref=1 / me_range=32 / chroma_me=1 / trellis=2 / 8x8dct=1 / cqm=0 / deadzone=21,11 / fast_pskip=1 / chroma_qp_offset=-2 / threads=32 / lookahead_threads=6 / sliced_threads=0 / nr=0 / decimate=1 / interlaced=0 / bluray_compat=0 / constrained_intra=0 / fgo=0 / bframes=10 / b_pyramid=2 / b_adapt=2 / b_bias=0 / direct=3 / weightb=1 / open_gop=0 / weightp=2 / keyint=250 / keyint_min=24 / scenecut=40 / intra_refresh=0 / rc=crf / mbtree=0 / crf=15.5000 / qcomp=0.60 / qpmin=0:0:0 / qpmax=69:69:69 / qpstep=4 / ip_ratio=1.25 / pb_ratio=1.20 / aq=3:0.80 / aq-sensitivity=10.00 / aq-factor=1.00:1.00:1.00:1.00 / aq2=0 / aq3=0 Язык : Danish Default : Да Forced : Нет Аудио #1 Идентификатор : 2 Формат : AC-3 Формат/Информация : Audio Coding 3 Коммерческое название : Dolby Digital Идентификатор кодека : A_AC3 Продолжительность : 2 ч. 7 м. Вид битрейта : Постоянный Битрейт : 192 Кбит/сек Каналы : 2 канала Channel layout : L R Частота : 48,0 КГц Частота кадров : 31,250 кадров/сек (1536 SPF) Метод сжатия : С потерями Размер потока : 175 Мбайт (1%) Заголовок : DUB - Soundmasters Язык : Russian Service kind : Complete Main Default : Да Forced : Нет Аудио #2 Идентификатор : 3 Формат : AC-3 Формат/Информация : Audio Coding 3 Коммерческое название : Dolby Digital Идентификатор кодека : A_AC3 Продолжительность : 2 ч. 7 м. Вид битрейта : Постоянный Битрейт : 384 Кбит/сек Каналы : 6 каналов Channel layout : L R C LFE Ls Rs Частота : 48,0 КГц Частота кадров : 31,250 кадров/сек (1536 SPF) Метод сжатия : С потерями Размер потока : 349 Мбайт (2%) Заголовок : AVO - Ю. Сербин Язык : Russian Service kind : Complete Main Default : Нет Forced : Нет Аудио #3 Идентификатор : 4 Формат : AC-3 Формат/Информация : Audio Coding 3 Коммерческое название : Dolby Digital Идентификатор кодека : A_AC3 Продолжительность : 2 ч. 7 м. Вид битрейта : Постоянный Битрейт : 640 Кбит/сек Каналы : 6 каналов Channel layout : L R C LFE Ls Rs Частота : 48,0 КГц Частота кадров : 31,250 кадров/сек (1536 SPF) Метод сжатия : С потерями Размер потока : 582 Мбайт (4%) Заголовок : Original Язык : Danish Service kind : Complete Main Default : Нет Forced : Нет Текст Идентификатор : 5 Формат : UTF-8 Идентификатор кодека : S_TEXT/UTF8 Идентификатор кодека/Информация : UTF-8 Plain Text Продолжительность : 2 ч. 1 м. Битрейт : 40 бит/сек Count of elements : 804 Размер потока : 36,1 Кбайт (0%) Заголовок : Язык : English Default : Нет Forced : Нет Меню 00:00:00.000 : en:Chapter 01 00:16:10.667 : en:Chapter 02 00:30:16.583 : en:Chapter 03 00:46:32.292 : en:Chapter 04 01:02:41.708 : en:Chapter 05 01:18:14.833 : en:Chapter 06 01:35:21.250 : en:Chapter 07 01:48:55.375 : en:Chapter 08 02:02:54.208 : en:Chapter 09

Всего файлов в раздаче: 1 
Bastarden.2023.BDRip1080p_от New-Team.mkv13.66 GB

Похожие раздачи по запросу - Меч
2024-05-09 magnet Меч короля / Bastarden / The Promised Land (2023) HDRip-AVC от DoMiNo & селезень | D, A 2.23 GB ↑ 0 ↓ 0
2024-05-07 magnet Меч короля / Bastarden / The Promised Land (2023) BDRip от New-Team | D | Soundmasters 1.46 GB ↑ 0 ↓ 0
2024-04-26 magnet Меч и Магия: Герои VII / Might and Magic Heroes VII [v 2.2.1-40632 + DLCs] (2016) PC | RePack от Wanterlude 12.00 GB ↑ 0 ↓ 0
2024-04-24 magnet Меч и Магия: Герои VII / Might and Magic Heroes VII: Complete Edition [v 2.2.1-40632 + DLCs] (2015) PC | RePack от Decepticon 11.97 GB ↑ 0 ↓ 0
2024-04-24 magnet Меч и Магия: Герои VII / Might and Magic Heroes VII: Complete Edition [v 2.2.1-40632 + DLCs] (2015) PC | Repack от dixen18 12.31 GB ↑ 0 ↓ 0
2024-04-20 magnet Меч [S01-02] (2009-2014) WEBRip-AVC 29.20 GB ↑ 1 ↓ 0
2024-04-15 magnet Вадим Кожевников - Щит и меч (2024) MP3 1001.08 MB ↑ 0 ↓ 0

Кто качает (только для создателя раздачи и модераторов):
ПользовательIP:портОтдалПринялОстатокСидируетТоррент клиентОбновился
1 Аноним 80.14.88.195:41311 160.00 kB 6.19 GB 13.58 GB нет -qB4390- 10:52 2024-05-18
2 Аноним 39.87.38.92:33733 2.16 MB 13.54 GB 13.58 GB нет -qB4390- 10:37 2024-05-18

Комментарии


Зарегистрируйтесь чтобы добавить комментарий
Торрент клиент
byTorrent - программа для загрузки торрент-файлов.

Скачать byTorrent.exe (1,5 МБ)

Скачать byTorrent.zip (0,6 МБ)

Поддержи torrent.by
российских рублей
(300 российских рублей это 4$)

Обратная связь rss

End game ©