↑↓torrent.by
Поиск
Логин:  Регистрация
Пароль:

Город тайн: Исчезнувшая / Сила природы: Засуха 2 / Force of Nature: The Dry 2 (2024) HDRip-AVC от DoMiNo & селезень | D | Soundmasters

download Скачать торрент-файл   magnet Магнитная ссылка Размер: 2.08 GB Раздают: 0 Качают: 1 Добавлен: 2024-05-07 05:00
Пиры будут получены из сети DHT
Последний сидер был замечен 2024-05-18 20:09
Информация о фильме Название: Город тайн: Исчезнувшая / Сила природы: Засуха 2 Оригинальное название: Force of Nature: The Dry 2 Год выпуска: 2024 Жанр: триллер Режиссер: Роберт Коннолли / Robert Connolly В ролях: Эрик Бана, Анна Торв, Деборра-Ли Фернесс, Робин МакЛиви, Сиси Стрингер, Люси Анселл, Жаклин Маккензи, Джереми Линдсэй Тейлор, Ричард Роксбург, Тони Бриггс, Кен Рэдли, Арчи Томсон, Эшли Рикардо, Ингрид Торелли, Мези Этвуд О фильме: Пять девушек отправляются на корпоративный тимбилдинг в горы. В ходе квеста бесследно исчезает одна из них, а другие участники похода явно что-то скрывают. На помощь местному следствию приезжает федеральный агент Аарон Фальк. Однако чем больше он углубляется в дело, тем больше прозрений у него возникает. Ведь каждая из вернувшихся рассказывает свою версию произошедшего, а местной полиции совершенно неясно, что тут делает федерал и зачем ему звонила пропавшая перед своим исчезновением. Выпущено: США / Made Up Stories Продолжительность: 01:52:25 Перевод: Дублированный (неофициальный) | Soundmasters Субтитры: Английские (Full, SDH) Файл Формат: Matroska Качество: HDRip-AVC Видео: 1152x480 at 24.000 fps, x264@L4.1, ~2009 kbps Аудио 1: AC3, 2 ch, ~192 kbps - | Русский | Аудио 2: AC3, 6 ch, ~448 kbps - | Английский | Формат субтитров: softsub (SRT) ***Рип от: -=DoMiNo=-
[+] M/Ix264 : frame I:1330 Avg QP:16.29 size: 63712 x264 : frame P:29435 Avg QP:18.18 size: 22486 x264 : frame B:131132 Avg QP:20.75 size: 7222 General Unique ID : 281393153863591137093576193632462354432 (0xD3B259A146F9AED2D8935D094AB6B800) Complete name : R:Force.Of.Nature.The.Dry.2.2024.DUB.x264.seleZen.mkv Format : Matroska Format version : Version 4 File size : 2.08 GiB Duration : 1 h 52 min Overall bit rate : 2 650 kb/s Frame rate : 24.000 FPS Movie name : Force.Of.Nature.The.Dry.2.2024.DUB.x264.seleZen Encoded date : 2024-05-06 12:14:13 UTC Writing application : mkvmerge v84.0 ('Sleeper') 64-bit Writing library : libebml v1.4.5 + libmatroska v1.7.1 Cover : Yes Attachments : cover.jpg / small_cover.jpg Video ID : 1 Format : AVC Format/Info : Advanced Video Codec Format profile : High@L4.1 Format settings : CABAC / 14 Ref Frames Format settings, CABAC : Yes Format settings, Reference : 14 frames Codec ID : V_MPEG4/ISO/AVC Duration : 1 h 52 min Bit rate : 2 009 kb/s Width : 1 152 pixels Height : 480 pixels Display aspect ratio : 2.40:1 Frame rate mode : Constant Frame rate : 24.000 FPS Color space : YUV Chroma subsampling : 4:2:0 Bit depth : 8 bits Scan type : Progressive Bits/(Pixel*Frame) : 0.151 Stream size : 1.58 GiB (76%) Title : -=DoMiNo=- Writing library : x264 core 164 r3190 -DoMiNo Encoding settings : cabac=1 / ref=14 / deblock=1:-2:-2 / analyse=0x3:0x133 / me=umh / subme=10 / psy=1 / psy_rd=1.00:0.00 / mixed_ref=1 / me_range=32 / chroma_me=1 / trellis=2 / 8x8dct=1 / cqm=0 / deadzone=21,11 / fast_pskip=0 / chroma_qp_offset=-2 / threads=15 / lookahead_threads=3 / sliced_threads=0 / nr=0 / decimate=1 / interlaced=0 / bluray_compat=0 / constrained_intra=0 / bframes=14 / b_pyramid=2 / b_adapt=2 / b_bias=0 / direct=3 / weightb=1 / open_gop=0 / weightp=2 / keyint=240 / keyint_min=24 / scenecut=40 / intra_refresh=0 / rc_lookahead=60 / rc=crf / mbtree=0 / crf=19.5 / qcomp=0.60 / qpmin=0 / qpmax=69 / qpstep=4 / vbv_maxrate=50000 / vbv_bufsize=62500 / crf_max=0.0 / nal_hrd=none / filler=0 / ip_ratio=1.40 / pb_ratio=1.30 / aq=3:0.80 Language : English Default : Yes Forced : No Color range : Limited Color primaries : BT.709 Transfer characteristics : BT.709 Matrix coefficients : BT.709 Audio #1 ID : 2 Format : AC-3 Format/Info : Audio Coding 3 Commercial name : Dolby Digital Codec ID : A_AC3 Duration : 1 h 52 min Bit rate mode : Constant Bit rate : 192 kb/s Channel(s) : 2 channels Channel layout : L R Sampling rate : 48.0 kHz Frame rate : 31.250 FPS (1536 SPF) Compression mode : Lossy Stream size : 154 MiB (7%) Title : DUB -Soundmasters Language : Russian Service kind : Complete Main Default : Yes Forced : No Dialog Normalization : -31 dB dialnorm_Average : -31 dB dialnorm_Minimum : -31 dB dialnorm_Maximum : -31 dB Audio #2 ID : 3 Format : AC-3 Format/Info : Audio Coding 3 Commercial name : Dolby Digital Codec ID : A_AC3 Duration : 1 h 52 min Bit rate mode : Constant Bit rate : 448 kb/s Channel(s) : 6 channels Channel layout : L R C LFE Ls Rs Sampling rate : 48.0 kHz Frame rate : 31.250 FPS (1536 SPF) Compression mode : Lossy Stream size : 360 MiB (17%) Title : Original Language : English Service kind : Complete Main Default : No Forced : No Dialog Normalization : -27 dB compr : -0.28 dB cmixlev : -3.0 dB surmixlev : -3 dB mixlevel : 285 dB roomtyp : 3 ltrtcmixlev : -3.0 dB ltrtsurmixlev : -3.0 dB lorocmixlev : -3.0 dB lorosurmixlev : -4.5 dB dialnorm_Average : -27 dB dialnorm_Minimum : -27 dB dialnorm_Maximum : -27 dB Text #1 ID : 4 Format : UTF-8 Codec ID : S_TEXT/UTF8 Codec ID/Info : UTF-8 Plain Text Duration : 1 h 45 min Bit rate : 66 b/s Frame rate : 0.282 FPS Count of elements : 1795 Stream size : 52.0 KiB (0%) Title : Full Language : English Default : No Forced : No Text #2 ID : 5 Format : UTF-8 Codec ID : S_TEXT/UTF8 Codec ID/Info : UTF-8 Plain Text Duration : 1 h 51 min Bit rate : 69 b/s Frame rate : 0.327 FPS Count of elements : 2189 Stream size : 56.6 KiB (0%) Title : SDH Language : English Default : No Forced : No Menu 00:00:00.000 : en:Chapter 01 00:09:44.542 : en:Chapter 02 00:18:39.042 : en:Chapter 03 00:26:18.292 : en:Chapter 04 00:37:25.875 : en:Chapter 05 00:46:19.375 : en:Chapter 06 00:55:23.792 : en:Chapter 07 01:06:35.083 : en:Chapter 08 01:18:58.708 : en:Chapter 09 01:27:54.750 : en:Chapter 10 01:38:26.333 : en:Chapter 11 01:47:37.958 : en:Chapter 12
Релиз: Присоединяйся к: Кликай на баннеры.

Всего файлов в раздаче: 1 
Force.Of.Nature.The.Dry.2.2024.DUB.x264.seleZen.mkv2.08 GB

Похожие раздачи по запросу - Город
Вчера magnet Город тайн: Исчезнувшая / Сила природы: Засуха 2 / Force of Nature: The Dry 2 (2024) HDRip от ExKinoRay | Paragraph Media 748.11 MB ↑ 0 ↓ 1
2024-05-19 magnet Город тайн: Исчезнувшая / Сила природы: Засуха 2 / Force of Nature: The Dry 2 (2024) BDRip 1080p от Generalfilm | D 6.60 GB ↑ 0 ↓ 7
2024-05-19 magnet Город тайн: Исчезнувшая / Сила природы: Засуха 2 / Force of Nature: The Dry 2 (2024) HDRip-AVC от DoMiNo & селезень | D | Paragraph Media, Soundmasters 2.43 GB ↑ 3 ↓ 9
2024-05-19 magnet Город тайн: Исчезнувшая / Сила природы: Засуха 2 / Force of Nature: The Dry 2 (2024) HDRip-AVC от DoMiNo & селезень | D | Paragraph Media 745.73 MB ↑ 0 ↓ 0
2024-05-18 magnet Город тайн: Исчезнувшая / Сила природы: Засуха 2 / Force of Nature: The Dry 2 (2024) HDRip от ELEKTRI4KA | D 1.45 GB ↑ 1 ↓ 20
2024-05-18 magnet Город тайн: Исчезнувшая / Сила природы: Засуха 2 / Force of Nature: The Dry 2 (2024) BDRip 1080p от селезень | D | Paragraph Media 13.35 GB ↑ 0 ↓ 1
2024-05-18 magnet Город тайн: Исчезнувшая / Сила природы: Засуха 2 / Force of Nature: The Dry 2 (2024) BDRemux 1080p от селезень | D | Paragraph Media 22.03 GB ↑ 2 ↓ 6

Кто качает (только для создателя раздачи и модераторов):
ПользовательIP:портОтдалПринялОстатокСидируетТоррент клиентОбновился
1 Аноним 197.2.124.176:32000 480.00 kB 506.14 MB 2.02 GB нет -qB4390- 13:23 2024-05-21

Комментарии


Зарегистрируйтесь чтобы добавить комментарий
Торрент клиент
byTorrent - программа для загрузки торрент-файлов.

Скачать byTorrent.exe (1,5 МБ)

Скачать byTorrent.zip (0,6 МБ)

Поддержи torrent.by
российских рублей
(300 российских рублей это 4$)

Обратная связь rss

End game ©