↑↓torrent.by
Поиск
Логин:  Регистрация
Пароль:

Судная ночь в Аркадии / Arcadian (2024) WEB-DL 2160p от ELEKTRI4KA | 4K | SDR | D

download Скачать торрент-файл   magnet Магнитная ссылка Размер: 10.23 GB Раздают: 0 Качают: 1 Добавлен: 2024-05-07 11:00
Пиры будут получены из сети DHT
Последний сидер был замечен 2024-05-18 16:00
Информация о фильме Название: Судная ночь в Аркадии Оригинальное название: Arcadian Год выхода: 2024 Жанр: ужасы Режиссер: Бенжамин Брюэр В ролях: Николас Кейдж, Джейден Мартелл, Макс Дженкинс, Сэди Совералл, Саманта Кохлан, Джо Диксон, Джоэль Гильман, Дэйр Макмахон О фильме: Земля пережила конец света, уничтоживший почти всех людей. Пол и его сыновья Томас и Джозеф — одни из немногих выживших, скрывшихся в отдаленном доме. Однако их жизнь все еще далека от спокойной: с каждым заходом солнца просыпаются свирепые и жестокие существа, которые уничтожают все живое на своем пути. Но однажды им придется выйти во тьму. Выпущено: Канада, США, Ирландия / Aperture Media Partners, Highland Film Group (HFG), Redline Entertainment (II) Продолжительность: 01:31:47 Озвучивание: Дублированное | Мосфильм-Мастер Файл Формат: MKV Качество: WEB-DL 2160p | AMZN Видео: MPEG-H HEVC, 14.9 Mb/s, 3840x1632 Аудио: Russian: AC3, 384 Kb/s (6 ch), Englishi: E-AC3, 640 Kb/s (6 ch) Субтитры: Russian (Full), English Дополнительно: Нет Релиз группы: Мы в Telegram:
[+] MediaInfo:Complete name : Sudnaya.noch.v.Arkadii.2024.AMZN.WEB-DL.2160p.SDR.ELEKTRI4KA.mkv Format : Matroska Format version : Version 4 File size : 10.2 GiB Duration : 1 h 31 min Overall bit rate : 16.0 Mb/s Movie name : Sudnaya.noch.v.Arkadii.2024.AMZN.WEB-DL.2160p.SDR.ELEKTRI4KA. Encoded date : UTC 2024-05-06 23:41:26 Writing application : mkvmerge v8.3.0 ('Over the Horizon') 64bit Writing library : libebml v1.3.1 + libmatroska v1.4.2 Video ID : 1 Format : HEVC Format/Info : High Efficiency Video Coding Format profile : Main@L5@Main Codec ID : V_MPEGH/ISO/HEVC Duration : 1 h 31 min Bit rate : 14.9 Mb/s Width : 3 840 pixels Height : 1 632 pixels Display aspect ratio : 2.35:1 Original display aspect ratio : 2.35:1 Frame rate mode : Constant Frame rate : 23.976 (24000/1001) FPS Color space : YUV Chroma subsampling : 4:2:0 Bit depth : 8 bits Bits/(Pixel*Frame) : 0.099 Stream size : 9.58 GiB (94%) Language : English Default : Yes Forced : No Color range : Limited Color primaries : BT.709 Transfer characteristics : BT.709 Matrix coefficients : BT.709 Audio #1 ID : 2 Format : AC-3 Format/Info : Audio Coding 3 Commercial name : Dolby Digital Codec ID : A_AC3 Duration : 1 h 31 min Bit rate mode : Constant Bit rate : 384 kb/s Channel(s) : 6 channels Channel layout : L R C LFE Ls Rs Sampling rate : 48.0 kHz Frame rate : 31.250 FPS (1536 SPF) Compression mode : Lossy Stream size : 252 MiB (2%) Title : DUB (Mosfilm-Master) Language : Russian Service kind : Complete Main Default : Yes Forced : Yes Audio #2 ID : 3 Format : E-AC-3 Format/Info : Enhanced AC-3 Commercial name : Dolby Digital Plus Codec ID : A_EAC3 Duration : 1 h 31 min Bit rate mode : Constant Bit rate : 640 kb/s Channel(s) : 6 channels Channel layout : L R C LFE Ls Rs Sampling rate : 48.0 kHz Frame rate : 31.250 FPS (1536 SPF) Compression mode : Lossy Stream size : 420 MiB (4%) Title : Original Language : English Service kind : Complete Main Default : No Forced : No Text #1 ID : 4 Format : UTF-8 Codec ID : S_TEXT/UTF8 Codec ID/Info : UTF-8 Plain Text Duration : 1 h 23 min Bit rate : 37 b/s Count of elements : 631 Stream size : 23.1 KiB (0%) Title : Full Language : Russian Default : No Forced : No Text #2 ID : 5 Format : UTF-8 Codec ID : S_TEXT/UTF8 Codec ID/Info : UTF-8 Plain Text Duration : 1 h 26 min Bit rate : 25 b/s Count of elements : 690 Stream size : 16.5 KiB (0%) Language : English Default : No Forced : No Text #3 ID : 6 Format : UTF-8 Codec ID : S_TEXT/UTF8 Codec ID/Info : UTF-8 Plain Text Duration : 1 h 30 min Bit rate : 31 b/s Count of elements : 1127 Stream size : 21.1 KiB (0%) Title : SDH Language : English Default : No Forced : No
[+] Скриншоты

Всего файлов в раздаче: 1 
Sudnaya.noch.v.Arkadii.2024.AMZN.WEB-DL.2160p.SDR.ELEKTRI4KA.mkv10.23 GB

Похожие раздачи по запросу - Судная
2024-05-07 magnet Судная ночь в Аркадии / Arcadian (2024) WEB-DLRip от ELEKTRI4KA | D 1.46 GB ↑ 0 ↓ 0
2024-05-07 magnet Судная ночь в Аркадии / Arcadian (2024) WEB-DL 1080p от ELEKTRI4KA | D 5.37 GB ↑ 0 ↓ 1
2024-05-07 magnet Судная ночь в Аркадии / Arcadian (2024) WEB-DLRip-AVC от ExKinoRay | D 1.54 GB ↑ 0 ↓ 0
2024-05-07 magnet Судная ночь в Аркадии / Arcadian (2024) WEB-DLRip 720p от ExKinoRay | D 2.28 GB ↑ 0 ↓ 0
2024-05-07 magnet Судная ночь в Аркадии / Arcadian (2024) WEB-DLRip-AVC от New-Team | D 1.76 GB ↑ 0 ↓ 0
2024-05-07 magnet Судная ночь в Аркадии / Arcadian (2024) WEB-DLRip 720p от DoMiNo & селезень | D 2.48 GB ↑ 0 ↓ 0
2024-05-03 magnet Судная ночь в Аркадии / Arcadian (2024) WEB-DLRip 720p от DoMiNo | D | TS 2.36 GB ↑ 0 ↓ 0

Кто качает (только для создателя раздачи и модераторов):
ПользовательIP:портОтдалПринялОстатокСидируетТоррент клиентОбновился
1 Аноним 83.172.14.63:32000 1.08 MB 5.17 GB 10.13 GB нет -qB4320- 13:35 2024-05-21

Комментарии


Зарегистрируйтесь чтобы добавить комментарий
Торрент клиент
byTorrent - программа для загрузки торрент-файлов.

Скачать byTorrent.exe (1,5 МБ)

Скачать byTorrent.zip (0,6 МБ)

Поддержи torrent.by
российских рублей
(300 российских рублей это 4$)

Обратная связь rss

End game ©