↑↓torrent.by
Поиск
Логин:  Регистрация
Пароль:

Дюна: Часть вторая / Dune: Part Two (2024) BDRip от New-Team | D

download Скачать торрент-файл   magnet Магнитная ссылка Размер: 2.18 GB Добавлен: 2024-05-07 17:00
Пиры будут получены из сети DHT
Последний сидер был замечен сегодня в 14:01
Дюна: Часть вторая / Dune: Part Two Год выпуска: 2024 Выпущено: США, Канада, Legendary Entertainment, Warner Bros. Entertainment, Villeneuve Films Жанр: Фантастика, боевик, драма, приключения Режиссер: Дени Вильнёв / Denis Villeneuve В ролях: Тимоти Шаламе, Зендея, Ребекка Фергюсон, Хавьер Бардем, Джош Бролин, Остин Батлер, Флоренс Пью, Дэйв Батиста, Кристофер Уокен, Леа Сейду О фильме: Примкнув к фременам, Пол Атрейдес, принявший имя Муад’Диб, должен доказать жителям пустыни, что теперь он действительно один из них. Несмотря на то, что он завоевал доверие и любовь Чани, кто-то считает Пола шпионом, другие же видят в нем мессию. Герою предстоит пройти сложнейшие испытания и возглавить противостояние с домом Харконненов и императором Шаддамом IV, виновными в смерти его отца. Молодой человек должен предотвратить ужасное будущее, которое грозит вселенной на пороге священной войны. «Дюна: Часть вторая» (2024) — продолжение эпического полотна Дени Вильнева по роману Фрэнка Герберта. Главные роли в фильме «Дюна 2» исполнили Тимоти Шаламе, Зендая, Ребекка Фергюсон, Стеллан Скарсгард, Леа Сейду, Флоренс Пью и Остин Батлер. Продолжительность: 02:45:48 Перевод: Профессиональный (полное дублирование) | Bravo Records Georgia / Movie Dubbing Субтитры: Русские (forced, full), английские (full) Раздача от: Автор релиза: JNS82. Формат: AVI Качество: BDRip | Dune Part Two 2024 1080p BluRay REMUX AVC Atmos-PiRaTeS Видео: 720x304 (2,35:1), 23.976 fps, XviD MPEG-4 ~ 1488 kbps avg, 0.284 bit/pixel, build 73 Аудио: 48 kHz, AC3 Dolby Digital, 3/2 (L,C,R,l,r) + LFE ch, ~ 384 kbps | RUS |
[+] MediaInfoОбщее Полное имя : D:TorrentsDune.Part.Two.2024.BDRip_2.18.gb_от New-Team_by_JNS82Dune.Part.Two.2024.BDRip_2.18.gb_от New-Team_by_JNS82.avi Формат : AVI Формат/Информация : Audio Video Interleave Профиль формата : OpenDML Размер файла : 2,18 Гбайт Продолжительность : 2 ч. 45 м. Общий поток : 1 885 Кбит/сек Программа кодирования : VirtualDubMod 1.5.10.2 (build 2540/release) Библиотека кодирования : VirtualDubMod build 2540/release Видео Идентификатор : 0 Формат : MPEG-4 Visual Профиль формата : Advanced Simple@L5 Настройки формата : BVOP1 / Custom Matrix Параметр BVOP формата : 1 Параметр QPel формата : Нет Параметр GMC формата : Без точки перехода Параметр матрицы формата : Выборочная Идентификатор кодека : XVID Идентификатор кодека/Подсказка : XviD Продолжительность : 2 ч. 45 м. Битрейт : 1 488 Кбит/сек Ширина : 720 пикселей Высота : 304 пикселя Соотношение сторон : 2,35:1 Частота кадров : 23,976 (24000/1001) кадра/сек Цветовое пространство : YUV Субдискретизация насыщенности : 4:2:0 Битовая глубина : 8 бит Тип развёртки : Прогрессивная Метод сжатия : С потерями Бит/(Пиксели*Кадры) : 0.284 Размер потока : 1,72 Гбайт (79%) Библиотека кодирования : XviD 73 Аудио Идентификатор : 1 Формат : AC-3 Формат/Информация : Audio Coding 3 Коммерческое название : Dolby Digital Идентификатор кодека : 2000 Продолжительность : 2 ч. 45 м. Вид битрейта : Постоянный Битрейт : 384 Кбит/сек Каналы : 6 каналов Channel layout : L R C LFE Ls Rs Частота : 48,0 КГц Частота кадров : 31,250 кадров/сек (1536 SPF) Метод сжатия : С потерями Размер потока : 455 Мбайт (20%) Выравнивание : Разделение по промежуткам Продолжительность промежутка : 42 мс. (1,00 видеокадр) Время предзагрузки промежутка : 500 мс. Service kind : Complete Main

Всего файлов в раздаче: 4 
Dune.Part.Two.2024.BDRip_2.18.gb_от New-Team_by_JNS82.avi2.18 GB
Dune.Part.Two.2024.BDRip_2.18.gb_от New-Team_by_JNS82_[eng].srt73.79 kB
Dune.Part.Two.2024.BDRip_2.18.gb_от New-Team_by_JNS82_forced_[rus].srt16.78 kB
Dune.Part.Two.2024.BDRip_2.18.gb_от New-Team_by_JNS82_full_[rus].srt108.60 kB

Похожие раздачи по запросу - Дюна
2024-05-13 magnet Дюна: Часть вторая / Дюна: Частина друга / Dune: Part Two (2024) BDRip 720p | D, P | UKR 9.86 GB ↑ 0 ↓ 0
2024-05-12 magnet Дюна: Часть вторая / Dune: Part Two (2024) UHD BDRemux 2160p | 4K | HDR10 | Dolby Vision | D, P, A 73.55 GB ↑ 0 ↓ 0
2024-05-12 magnet Дюна: Часть вторая / Дюна: Частина друга / Dune: Part Two (2024) UHD BDRemux 2160p | 4K | HDR | Dolby Vision | D, P | UKR 65.17 GB ↑ 0 ↓ 1
2024-05-10 magnet Дюна: Часть вторая / Dune: Part Two (2024) BDRip 1080p от селезень | D 14.29 GB ↑ 0 ↓ 0
2024-05-07 magnet Дюна: Часть вторая / Dune: Part Two (2024) BDRip-AVC от New-Team | D 2.94 GB ↑ 0 ↓ 0
2024-05-07 magnet Дюна: Часть вторая / Dune: Part Two (2024) BDRip от New-Team | D 1.46 GB ↑ 0 ↓ 0
2024-04-24 magnet Дюна: Часть вторая / Dune: Part Two (2024) UHD WEB-DL-HEVC 2160p от Scarabey | 4K | HDR | Dolby Vision | D | Red Head Sound 19.00 GB ↑ 0 ↓ 0

Кто качает (только для создателя раздачи и модераторов): Локальные пиры отсутствуют

Комментарии


Зарегистрируйтесь чтобы добавить комментарий
Торрент клиент
byTorrent - программа для загрузки торрент-файлов.

Скачать byTorrent.exe (1,5 МБ)

Скачать byTorrent.zip (0,6 МБ)

Поддержи torrent.by
российских рублей
(300 российских рублей это 4$)

Обратная связь rss

End game ©