↑↓torrent.by
Поиск
Логин:  Регистрация
Пароль:

Дюна: Часть вторая / Dune: Part Two (2024) BDRip-AVC от New-Team | D

download Скачать торрент-файл   magnet Магнитная ссылка Размер: 2.94 GB Добавлен: 2024-05-07 17:00
Пиры будут получены из сети DHT
Последний сидер был замечен 2024-05-12 13:25
Дюна: Часть вторая / Dune: Part Two Год выпуска: 2024 Выпущено: США, Канада, Legendary Entertainment, Warner Bros. Entertainment, Villeneuve Films Жанр: Фантастика, боевик, драма, приключения Режиссер: Дени Вильнёв / Denis Villeneuve В ролях: Тимоти Шаламе, Зендея, Ребекка Фергюсон, Хавьер Бардем, Джош Бролин, Остин Батлер, Флоренс Пью, Дэйв Батиста, Кристофер Уокен, Леа Сейду О фильме: Примкнув к фременам, Пол Атрейдес, принявший имя Муад’Диб, должен доказать жителям пустыни, что теперь он действительно один из них. Несмотря на то, что он завоевал доверие и любовь Чани, кто-то считает Пола шпионом, другие же видят в нем мессию. Герою предстоит пройти сложнейшие испытания и возглавить противостояние с домом Харконненов и императором Шаддамом IV, виновными в смерти его отца. Молодой человек должен предотвратить ужасное будущее, которое грозит вселенной на пороге священной войны. «Дюна: Часть вторая» (2024) — продолжение эпического полотна Дени Вильнева по роману Фрэнка Герберта. Главные роли в фильме «Дюна 2» исполнили Тимоти Шаламе, Зендая, Ребекка Фергюсон, Стеллан Скарсгард, Леа Сейду, Флоренс Пью и Остин Батлер. Продолжительность: 02:45:48 Перевод: Профессиональный (полное дублирование) | Bravo Records Georgia / Movie Dubbing Субтитры: Русские (forced, full), английские (full) Раздача от: Автор релиза: JNS82. Формат: MKV Качество: BDRip-AVC Видео: MPEG-4 AVC, 1766 Кбит/с, (2,40:1), 1024x428, 23,976 fps Аудио #1: 48 kHz, AC3 Dolby Digital, 3/2 (L,C,R,l,r) + LFE ch, ~ 384 kbps | RUS | Аудио #2: 48 kHz, AC3 Dolby Digital, 3/2 (L,C,R,l,r) + LFE ch, ~ 384 kbps | ENG |
[+] MediaInfoОбщее Уникальный идентификатор : 6803832670049329091383038284851651475 (0x51E5ED995C7B4B3E0F2756305212393) Полное имя : D:TorrentsDune.Part.Two.2024.BDRip-AVC_от New-Team_by_JNS82.mkv Формат : Matroska Версия формата : Version 4 Размер файла : 2,94 Гбайт Продолжительность : 2 ч. 45 м. Общий поток : 2 536 Кбит/сек Название фильма : Dune.Part.Two.2024.BDRip-AVC_от New-Team_by_JNS82 Дата кодирования : UTC 2024-05-07 08:40:15 Программа кодирования : mkvmerge v79.0 ('Funeral Pyres') 64-bit Библиотека кодирования : libebml v1.4.4 + libmatroska v1.7.1 Видео Идентификатор : 1 Формат : AVC Формат/Информация : Advanced Video Codec Профиль формата : High@L4.1 Настройки формата : CABAC / 12 Ref Frames Параметр CABAC формата : Да Параметр RefFrames формата : 12 кадров Идентификатор кодека : V_MPEG4/ISO/AVC Продолжительность : 2 ч. 45 м. Битрейт : 1 766 Кбит/сек Ширина : 1 024 пикселя Высота : 428 пикселей Соотношение сторон : 2,40:1 Режим частоты кадров : Постоянный Частота кадров : 23,976 (24000/1001) кадра/сек Цветовое пространство : YUV Субдискретизация насыщенности : 4:2:0 Битовая глубина : 8 бит Тип развёртки : Прогрессивная Бит/(Пиксели*Кадры) : 0.168 Размер потока : 2,05 Гбайт (70%) Библиотека кодирования : x264 core 164 r3156+57M NewTeam t_mod_New Настройки программы : cabac=1 / ref=12 / deblock=1:-3:-2 / analyse=0x3:0x133 / me=umh / subme=10 / psy=1 / fade_compensate=0.00 / psy_rd=1.05:0.10 / mixed_ref=1 / me_range=32 / chroma_me=1 / trellis=2 / 8x8dct=1 / cqm=0 / deadzone=21,11 / fast_pskip=0 / chroma_qp_offset=-3 / threads=13 / lookahead_threads=3 / sliced_threads=0 / nr=0 / decimate=0 / interlaced=0 / bluray_compat=0 / constrained_intra=0 / fgo=0 / bframes=10 / b_pyramid=2 / b_adapt=2 / b_bias=0 / direct=3 / weightb=1 / open_gop=0 / weightp=2 / keyint=240 / keyint_min=23 / scenecut=40 / intra_refresh=0 / rc_lookahead=60 / rc=2pass / mbtree=0 / bitrate=1766 / ratetol=1.0 / qcomp=0.60 / qpmin=0:0:0 / qpmax=69:69:69 / qpstep=5 / cplxblur=20.0 / qblur=0.5 / vbv_maxrate=50000 / vbv_bufsize=62500 / nal_hrd=none / filler=0 / ip_ratio=1.40 / pb_ratio=1.30 / aq=1:1.00 / aq-sensitivity=10.00 / aq-factor=1.00:1.00:1.00 / aq2=0 / aq3=0 Язык : English Default : Да Forced : Нет Аудио #1 Идентификатор : 2 Формат : AC-3 Формат/Информация : Audio Coding 3 Коммерческое название : Dolby Digital Идентификатор кодека : A_AC3 Продолжительность : 2 ч. 45 м. Вид битрейта : Постоянный Битрейт : 384 Кбит/сек Каналы : 6 каналов Channel layout : L R C LFE Ls Rs Частота : 48,0 КГц Частота кадров : 31,250 кадров/сек (1536 SPF) Метод сжатия : С потерями Размер потока : 455 Мбайт (15%) Заголовок : DUB - Bravo Records Georgia / Movie Dubbing Язык : Russian Service kind : Complete Main Default : Да Forced : Нет Аудио #2 Идентификатор : 3 Формат : AC-3 Формат/Информация : Audio Coding 3 Коммерческое название : Dolby Digital Идентификатор кодека : A_AC3 Продолжительность : 2 ч. 45 м. Вид битрейта : Постоянный Битрейт : 384 Кбит/сек Каналы : 6 каналов Channel layout : L R C LFE Ls Rs Частота : 48,0 КГц Частота кадров : 31,250 кадров/сек (1536 SPF) Метод сжатия : С потерями Задержка видео : 16 мс. Размер потока : 455 Мбайт (15%) Заголовок : Original Язык : English Service kind : Complete Main Default : Нет Forced : Нет Текст #1 Идентификатор : 4 Формат : UTF-8 Идентификатор кодека : S_TEXT/UTF8 Идентификатор кодека/Информация : UTF-8 Plain Text Продолжительность : 2 ч. 39 м. Битрейт : 7 бит/сек Count of elements : 214 Размер потока : 8,53 Кбайт (0%) Заголовок : Язык : Russian Default : Да Forced : Нет Текст #2 Идентификатор : 5 Формат : UTF-8 Идентификатор кодека : S_TEXT/UTF8 Идентификатор кодека/Информация : UTF-8 Plain Text Продолжительность : 2 ч. 45 м. Битрейт : 46 бит/сек Count of elements : 1331 Размер потока : 56,4 Кбайт (0%) Заголовок : Язык : Russian Default : Нет Forced : Нет Текст #3 Идентификатор : 6 Формат : UTF-8 Идентификатор кодека : S_TEXT/UTF8 Идентификатор кодека/Информация : UTF-8 Plain Text Продолжительность : 2 ч. 35 м. Битрейт : 27 бит/сек Count of elements : 1081 Размер потока : 31,6 Кбайт (0%) Заголовок : Язык : English Default : Нет Forced : Нет Меню 00:00:00.000 : en:Chapter 01 00:09:14.220 : en:Chapter 02 00:21:28.912 : en:Chapter 03 00:29:29.934 : en:Chapter 04 00:40:07.905 : en:Chapter 05 00:50:39.661 : en:Chapter 06 01:00:33.129 : en:Chapter 07 01:09:53.522 : en:Chapter 08 01:19:39.399 : en:Chapter 09 01:30:38.599 : en:Chapter 10 01:39:04.939 : en:Chapter 11 01:49:34.859 : en:Chapter 12 01:59:39.422 : en:Chapter 13 02:10:23.398 : en:Chapter 14 02:18:49.279 : en:Chapter 15 02:24:18.232 : en:Chapter 16 02:37:44.830 : en:Chapter 17

Всего файлов в раздаче: 1 
Dune.Part.Two.2024.BDRip-AVC_от New-Team_by_JNS82.mkv2.94 GB

Похожие раздачи по запросу - Дюна
2024-05-13 magnet Дюна: Часть вторая / Дюна: Частина друга / Dune: Part Two (2024) BDRip 720p | D, P | UKR 9.86 GB ↑ 0 ↓ 0
2024-05-12 magnet Дюна: Часть вторая / Dune: Part Two (2024) UHD BDRemux 2160p | 4K | HDR10 | Dolby Vision | D, P, A 73.55 GB ↑ 0 ↓ 0
2024-05-12 magnet Дюна: Часть вторая / Дюна: Частина друга / Dune: Part Two (2024) UHD BDRemux 2160p | 4K | HDR | Dolby Vision | D, P | UKR 65.17 GB ↑ 0 ↓ 0
2024-05-10 magnet Дюна: Часть вторая / Dune: Part Two (2024) BDRip 1080p от селезень | D 14.29 GB ↑ 0 ↓ 0
2024-05-07 magnet Дюна: Часть вторая / Dune: Part Two (2024) BDRip от New-Team | D 2.18 GB ↑ 0 ↓ 0
2024-05-07 magnet Дюна: Часть вторая / Dune: Part Two (2024) BDRip от New-Team | D 1.46 GB ↑ 0 ↓ 0
2024-04-24 magnet Дюна: Часть вторая / Dune: Part Two (2024) UHD WEB-DL-HEVC 2160p от Scarabey | 4K | HDR | Dolby Vision | D | Red Head Sound 19.00 GB ↑ 0 ↓ 0

Комментарии


Зарегистрируйтесь чтобы добавить комментарий
Торрент клиент
byTorrent - программа для загрузки торрент-файлов.

Скачать byTorrent.exe (1,5 МБ)

Скачать byTorrent.zip (0,6 МБ)

Поддержи torrent.by
российских рублей
(300 российских рублей это 4$)

Обратная связь rss

End game ©