↑↓torrent.by
Поиск
Логин:  Регистрация
Пароль:

Охотники за привидениями: Леденящий ужас / Ghostbusters: Frozen Empire (2024) WEB-DL-HEVC 2160p | 4K | SDR | D | Soundmasters, MovieDalen

download Скачать торрент-файл   magnet Магнитная ссылка Размер: 10.21 GB Раздают: 0 Качают: 5 Добавлен: 2024-05-07 17:00
Пиры будут получены из сети DHT
Последний сидер был замечен 2024-05-19 19:59
Информация о фильме Название: Охотники за привидениями: Леденящий ужас Оригинальное название: Ghostbusters: Frozen Empire Год выпуска: 2024 Жанр: фантастика, фэнтези, комедия, приключения Режиссер: Гил Кинан / Gil Kenan В ролях: Пол Радд, Кэрри Кун, Финн Вулфхард, Маккенна Грейс, Кумэйл Нанджиани, Пэттон Освальт, Селеста О’Коннор, Логан Ким, Эмили Элин Линд, Джеймс Акастер О фильме: После событий в Оклахоме Спенглеры возвращаются туда, где все началось, — в легендарную пожарную часть Нью-Йорка. Юным охотникам за привидениями, их маме и мистеру Груберсону предстоит объединиться со своими предшественниками, создавшими сверхсекретную исследовательскую лабораторию, благодаря которой борьба с нечистью вышла на новый уровень. Но обнаружив древний артефакт, герои высвобождают новое зло. Нью-Йорк превращается в ледяную империю прямо посреди июля. Охотники за привидениями должны сделать все, чтобы спасти мир от второго ледникового периода. Выпущено: США, Канада, Великобритания / Columbia Pictures, Ghostcorps Продолжительность: 01:55:04 Перевод 1: Дублированный (неофициальный) | Soundmasters Перевод 2: Профессиональный (полное дублирование) | MovieDalen Субтитры: Английские Файл Формат: Matroska Качество: WEB-DL-HEVC 2160p | 4K | SDR | 10 бит Видео: HEVC/H.265, 3840х1604, ~11,9 Mbps Аудио 1: AC3, 2 ch, 192 kbps - русский (Soundmaster) - неофициальный Аудио 2: AC3, 2 ch, 192 kbps - русский (MovieDalen) - официальный Аудио 3: AC3, 6 ch, 384 kbps - английский Формат субтитров: softsub (SRT)
[+] M/IОбщее Уникальный идентификатор : 278171549254584435862672147104392718920 (0xD145E4426D5FDCD0E058E75096BAAA48) Полное имя : F:Ghostbusters.Frozen.Empire.2024.x265.WEB-DL.2160p.SDR.mkv Формат : Matroska Версия формата : Version 4 Размер файла : 10,2 Гбайт Продолжительность : 1 ч. 55 м. Общий поток : 12,7 Мбит/сек Дата кодирования : UTC 2024-05-07 08:21:56 Программа кодирования : mkvmerge v83.0 ('Circle Of Friends') 64-bit Библиотека кодирования : libebml v1.4.5 + libmatroska v1.7.1 Видео Идентификатор : 1 Формат : HEVC Формат/Информация : High Efficiency Video Coding Профиль формата : Main 10@L5@High Идентификатор кодека : V_MPEGH/ISO/HEVC Продолжительность : 1 ч. 55 м. Битрейт : 11,9 Мбит/сек Ширина : 3 840 пикселей Высота : 1 604 пикселя Соотношение сторон : 2,40:1 Режим частоты кадров : Постоянный Частота кадров : 23,976 кадра/сек Цветовое пространство : YUV Субдискретизация насыщенности : 4:2:0 Битовая глубина : 10 бит Бит/(Пиксели*Кадры) : 0.081 Размер потока : 9,59 Гбайт (94%) Язык : English Default : Да Forced : Да Цветовой диапазон : Limited Основные цвета : BT.709 Характеристики трансфера : BT.709 Коэффициенты матрицы : BT.709 Аудио #1 Идентификатор : 2 Формат : AC-3 Формат/Информация : Audio Coding 3 Коммерческое название : Dolby Digital Идентификатор кодека : A_AC3 Продолжительность : 1 ч. 55 м. Вид битрейта : Постоянный Битрейт : 192 Кбит/сек Каналы : 2 канала Channel layout : L R Частота : 48,0 КГц Частота кадров : 31,250 кадров/сек (1536 SPF) Метод сжатия : С потерями Размер потока : 158 Мбайт (2%) Заголовок : DUB (Soundmaster) Язык : Russian Service kind : Complete Main Default : Да Forced : Да Аудио #2 Идентификатор : 3 Формат : AC-3 Формат/Информация : Audio Coding 3 Коммерческое название : Dolby Digital Идентификатор кодека : A_AC3 Продолжительность : 1 ч. 55 м. Вид битрейта : Постоянный Битрейт : 192 Кбит/сек Каналы : 2 канала Channel layout : L R Частота : 48,0 КГц Частота кадров : 31,250 кадров/сек (1536 SPF) Метод сжатия : С потерями Размер потока : 158 Мбайт (2%) Заголовок : DUB (MovieDalen) Язык : Russian Service kind : Complete Main Default : Нет Forced : Нет Аудио #3 Идентификатор : 4 Формат : AC-3 Формат/Информация : Audio Coding 3 Коммерческое название : Dolby Digital Идентификатор кодека : A_AC3 Продолжительность : 1 ч. 55 м. Вид битрейта : Постоянный Битрейт : 384 Кбит/сек Каналы : 6 каналов Channel layout : L R C LFE Ls Rs Частота : 48,0 КГц Частота кадров : 31,250 кадров/сек (1536 SPF) Метод сжатия : С потерями Размер потока : 316 Мбайт (3%) Язык : English Service kind : Complete Main Default : Нет Forced : Нет Текст #1 Идентификатор : 5 Формат : UTF-8 Идентификатор кодека : S_TEXT/UTF8 Идентификатор кодека/Информация : UTF-8 Plain Text Продолжительность : 1 ч. 53 м. Битрейт : 45 бит/сек Частота кадров : 0,199 кадр/сек Count of elements : 1358 Размер потока : 38,1 Кбайт (0%) Язык : Latvian Default : Нет Forced : Нет Текст #2 Идентификатор : 6 Формат : UTF-8 Идентификатор кодека : S_TEXT/UTF8 Идентификатор кодека/Информация : UTF-8 Plain Text Продолжительность : 1 ч. 53 м. Битрейт : 44 бит/сек Частота кадров : 0,192 кадр/сек Count of elements : 1315 Размер потока : 36,8 Кбайт (0%) Язык : Lithuanian Default : Нет Forced : Нет Текст #3 Идентификатор : 7 Формат : UTF-8 Идентификатор кодека : S_TEXT/UTF8 Идентификатор кодека/Информация : UTF-8 Plain Text Продолжительность : 1 ч. 47 м. Битрейт : 51 бит/сек Частота кадров : 0,200 кадр/сек Count of elements : 1291 Размер потока : 40,7 Кбайт (0%) Язык : English Default : Нет Forced : Нет

Всего файлов в раздаче: 1 
Ghostbusters.Frozen.Empire.2024.x265.WEB-DL.2160p.SDR.mkv10.21 GB

Похожие раздачи по запросу - Охотники
Сегодня magnet Серия - Охотники за мирами [47 книг] (2020-2024) FB2 157.27 MB ↑ 0 ↓ 0
2024-05-18 magnet Охотники за привидениями: Леденящий ужас / Мисливці на привидів: Крижана імперія / Ghostbusters: Frozen Empire (2024) WEB-DL-HEVC 2160p | 4K | HDR | Dolby Vision Profile 8 | D | UKR 20.25 GB ↑ 0 ↓ 2
2024-05-18 magnet Охотники за привидениями: Леденящий ужас / Мисливці на привидів: Крижана імперія / Ghostbusters: Frozen Empire (2024) WEB-DL-HEVC 2160p | 4K | SDR | D | UKR 12.87 GB ↑ 1 ↓ 0
2024-05-17 magnet Охотники за привидениями: Леденящий ужас / Мисливці на привидів: Крижана імперія / Ghostbusters: Frozen Empire (2024) WEB-DL 1080p | D | UKR 6.13 GB ↑ 0 ↓ 2
2024-05-16 magnet Серия - Охотники за мирами [45 книг] (2020-2024) FB2 150.56 MB ↑ 0 ↓ 0
2024-05-15 magnet Охотники за привидениями: Леденящий ужас / Ghostbusters: Frozen Empire (2024) UHD WEB-DL-HEVC 2160p | 4K | HDR | Dolby Vision Profile 8 | D, P 20.77 GB ↑ 1 ↓ 10
2024-05-08 magnet Охотники за привидениями: Леденящий ужас / Ghostbusters: Frozen Empire (2024) WEB-DLRip 720p от DoMiNo & селезень | D | Soundmasters, MovieDalen 3.10 GB ↑ 0 ↓ 4

Кто качает (только для создателя раздачи и модераторов):
ПользовательIP:портОтдалПринялОстатокСидируетТоррент клиентОбновился
1 Аноним 108.139.113.89:39279 3.31 MB 9.24 GB 9.95 GB нет -qB4390- 14:05 2024-05-21
2 Аноним 182.29.108.91:32000 1.09 MB 5.21 GB 10.12 GB нет -qB4390- 13:45 2024-05-21
3 Аноним 208.179.54.185:35999 7.88 MB 7.20 GB 10.13 GB нет -qB4390- 14:03 2024-05-21
4 Аноним 7.38.143.5:32000 282.04 kB 2.68 GB 10.13 GB нет -qB4390- 14:05 2024-05-21
5 Аноним 11.90.253.85:39815 0.00 B 0.00 B 8589934592.00 GB нет -qB4390- 13:48 2024-05-21

Комментарии


Зарегистрируйтесь чтобы добавить комментарий
Торрент клиент
byTorrent - программа для загрузки торрент-файлов.

Скачать byTorrent.exe (1,5 МБ)

Скачать byTorrent.zip (0,6 МБ)

Поддержи torrent.by
российских рублей
(300 российских рублей это 4$)

Обратная связь rss

End game ©