↑↓torrent.by
Поиск
Логин:  Регистрация
Пароль:

Откровения [S01-02] (2011-2012) WEBRip-AVC от Generalfilm | КПК

download Скачать торрент-файл   magnet Магнитная ссылка Размер: 3.94 GB Добавлен: 2024-05-08 05:00
Пиры будут получены из сети DHT
Последний сидер был замечен 2024-05-11 05:54
Информация о фильме Оригинальное название: Откровения Год выхода: 2011 Жанр: Драма, криминал Режиссер: Алексей Красовский, Дмитрий Петрунь, Руслан Маликов, Сергей Осипьян, Оксана Бычкова, Максим Василенко, Дмитрий Дакович, Иван Лебедев В ролях: Кирилл Пирогов, Дмитрий Назаров, Лидия Вележева, Роман Мадянов, Андрей Ильин, Мария Аронова, Иван Кокорин, Григорий Сиятвинда, Ярослав Леонов, Александр (Израэль) Демидов, Александр Самойленко, Андрей Харитонов, Татьяна Лютаева, Валентина Талызина, Вера Строкова, Евгений Цыганов, Полина Филоненко, Алексей Кравченко, Роман Ершов (II), Владимир Стеклов, Мария Голубкина, Светлана Камынина, Игорь Ливанов, Аристарх Ливанов, Александр Галибин, Вадим Норштейн, Валерий Гаркалин, Иван Моховиков, Мадлен Джабраилова, Евгений Стычкин, Анатолий Лобоцкий, Максим Коновалов, Наталия Курдюбова, Валерий Сторожик, Игорь Войнаровский (II), Максим Виноградов, Олег Фомин, Александр Феклистов, Мария Баева, Александр Сирин О фильме: Откровения: Когда расследование заходит в тупик, на помощь приходит частный детектив Листок (Кирилл Пирогов). Его метод – допрос, замаскированный в душевную беседу или непринужденный разговор двух «случайно» оказавшихся рядом незнакомцев. Листок не давит. Не угрожает. Не прикрывается законом. Он предпочитает доверительный тон, а для встреч в основном использует самые обычные пространства: квартиры, офисы, коридоры, салоны машин; любые места, в которых человеку говорить удобней. Листок – хамелеон, способный представляться кем угодно: бывшим телеведущим, опустившимся на самое дно, учителем труда, клоуном, водителем троллейбуса, женихом, от которого сбежала невеста... Разговаривая с подозреваемыми, потерпевшими, свидетелями и другими людьми, причастными к делу, Листок старается подобраться к ним ближе, ему нужна не только истина, он хочет понять мотивы этих людей: почему они обманывают или не выдают преступника, или не хотят проходить по делу свидетелями. Почему в решающий момент они потеряли человеческое достоинство, предали свои идеалы. Откровения. Реванш: Ее зовут Ева, и она орудие зла. Женщина, для которой рамок приличия не существует: если нужно опорочить приличного человека, она сделает это. Подтолкнуть к предательству, убедить честного лжесвидетельствовать, а миролюбивого взять в руки оружие – Ева с удовольствием устроит все так, что ни одна тень не упадет на заказчика. Преступление никогда не будет раскрыто, если в помощниках у нарушителей закона есть она - циничная, беспринципная и криминально талантливая. Страна: Россия Студия: ТРК ВС РФ "Звезда" Продолжительность: 36 x ~ 00:25:00 Перевод: Не требуется Файл Формат: MP4 Качество: WEBRip-AVC Видео: MPEG-4 AVC (x264), 640x360, ~ 500 kbps, 25.000 fps Аудио: AAC LC, 44.1 KHz, 2 ch, 128 Kbps Субтитры: Нет
[+] Скриншоты
[+] MIComplete name : D:киноOtkroveniya.WEBRip-AVC.KPK.GFOtkroveniya.S01.2011.WEBRip-AVC.KPK.GFOtkroveniya.s01e03.2011.WEBRip-AVC.KPK.GF.mp4 Format : MPEG-4 Codec ID : M4V (isom/iso2/avc1) File size : 119 MiB Duration : 26mn 19s Overall bit rate mode : Variable Overall bit rate : 633 Kbps Writing application : Lavf53.19.0 Video ID : 1 Format : AVC Format/Info : Advanced Video Codec Format profile : High@L4.1 Format settings, CABAC : Yes Format settings, ReFrames : 8 frames Codec ID : avc1 Codec ID/Info : Advanced Video Coding Duration : 26mn 19s Bit rate : 500 Kbps Width : 640 pixels Height : 360 pixels Display aspect ratio : 16:9 Frame rate mode : Constant Frame rate : 25.000 fps Color space : YUV Chroma subsampling : 4:2:0 Bit depth : 8 bits Scan type : Progressive Bits/(Pixel*Frame) : 0.087 Stream size : 94.1 MiB (79%) Writing library : x264 core 146 r2538 121396c Encoding settings : cabac=1 / ref=8 / deblock=1:-1:-1 / analyse=0x3:0x133 / me=umh / subme=10 / psy=1 / psy_rd=1.00:0.00 / mixed_ref=1 / me_range=24 / chroma_me=1 / trellis=2 / 8x8dct=1 / cqm=0 / deadzone=21,11 / fast_pskip=1 / chroma_qp_offset=-2 / threads=3 / lookahead_threads=1 / sliced_threads=0 / nr=0 / decimate=1 / interlaced=0 / bluray_compat=0 / constrained_intra=0 / bframes=8 / b_pyramid=2 / b_adapt=2 / b_bias=0 / direct=3 / weightb=1 / open_gop=0 / weightp=2 / keyint=250 / keyint_min=126 / scenecut=40 / intra_refresh=0 / rc_lookahead=40 / rc=2pass / mbtree=1 / bitrate=500 / ratetol=1.0 / qcomp=0.60 / qpmin=0 / qpmax=69 / qpstep=4 / cplxblur=20.0 / qblur=0.5 / ip_ratio=1.40 / aq=1:1.00 Menus : 3 Audio ID : 2 Format : AAC Format/Info : Advanced Audio Codec Format profile : LC Codec ID : 40 Duration : 26mn 19s Bit rate mode : Variable Bit rate : 128 Kbps Channel(s) : 2 channels Channel positions : Front: L R Sampling rate : 44.1 KHz Frame rate : 43.066 fps (1024 spf) Compression mode : Lossy Stream size : 24.0 MiB (20%) Default : Yes Alternate group : 1 Menus : 3
Релиз от:

Всего файлов в раздаче: 36 
Otkroveniya.S01.2011.WEBRip-AVC.KPK.GF\Otkroveniya.s01e01.2011.WEBRip-AVC.KPK.GF.mp4107.73 MB
Otkroveniya.S01.2011.WEBRip-AVC.KPK.GF\Otkroveniya.s01e02.2011.WEBRip-AVC.KPK.GF.mp4120.38 MB
Otkroveniya.S01.2011.WEBRip-AVC.KPK.GF\Otkroveniya.s01e03.2011.WEBRip-AVC.KPK.GF.mp4119.22 MB
Otkroveniya.S01.2011.WEBRip-AVC.KPK.GF\Otkroveniya.s01e04.2011.WEBRip-AVC.KPK.GF.mp4120.68 MB
Otkroveniya.S01.2011.WEBRip-AVC.KPK.GF\Otkroveniya.s01e05.2011.WEBRip-AVC.KPK.GF.mp4118.53 MB
Otkroveniya.S01.2011.WEBRip-AVC.KPK.GF\Otkroveniya.s01e06.2011.WEBRip-AVC.KPK.GF.mp499.46 MB
Otkroveniya.S01.2011.WEBRip-AVC.KPK.GF\Otkroveniya.s01e07.2011.WEBRip-AVC.KPK.GF.mp4118.71 MB
Otkroveniya.S01.2011.WEBRip-AVC.KPK.GF\Otkroveniya.s01e08.2011.WEBRip-AVC.KPK.GF.mp4101.23 MB
Otkroveniya.S01.2011.WEBRip-AVC.KPK.GF\Otkroveniya.s01e09.2011.WEBRip-AVC.KPK.GF.mp4100.95 MB
Otkroveniya.S01.2011.WEBRip-AVC.KPK.GF\Otkroveniya.s01e10.2011.WEBRip-AVC.KPK.GF.mp4110.01 MB
Показать все файлы

Комментарии


Зарегистрируйтесь чтобы добавить комментарий
Торрент клиент
byTorrent - программа для загрузки торрент-файлов.

Скачать byTorrent.exe (1,5 МБ)

Скачать byTorrent.zip (0,6 МБ)

Поддержи torrent.by
российских рублей
(300 российских рублей это 4$)

Обратная связь rss

End game ©