↑↓torrent.by
Поиск
Логин:  Регистрация
Пароль:

Химера / La chimera (2023) WEB-DLRip от New-Team | P

download Скачать торрент-файл   magnet Магнитная ссылка Размер: 1.46 GB Добавлен: 2024-05-08 05:00
Пиры будут получены из сети DHT
Последний сидер был замечен 2024-05-19 17:48
Химера / La chimera Год выпуска: 2023 Выпущено: Италия, Франция, Швейцария, Турция / Tempesta, Rai Cinema, Ad Vitam Production Жанр: фэнтези, мелодрама, комедия, приключения Режиссер: Аличе Рорвахер / Alice Rohrwacher В ролях: Джош О’Коннор, Карол Дуарте, Винченцо Немолато, Изабелла Росселлини А, Льба Ровахер, Лу Руа-Леколлине, Джулиано Мантовани, Джан Пьеро Капретто, Мельчиорре Пала, Рамона Фьорини О фильме: 1980-е, Италия. Вернувшись в город своих воспоминаний, молодой британский археолог Артур встречает банду кладоискателей и оказывается втянут в незаконный оборот древних находок. Пока друзья Артура используют его особый дар с целью разбогатеть, сам он ищет вход в загробный мир, чтобы вновь встретиться со своей возлюбленной. Ведь каждый преследует свою собственную Химеру, но не всем удается ее найти. Продолжительность: 02:12:56 Перевод: Профессиональный (многоголосый, закадровый) | Paragraph Media Субтитры: Русские (forced, full), Раздача от: Автор релиза: JNS82. Формат: AVI Качество: WEB-DLRip Видео: 704x400 (16:9), 24.000 fps, XviD MPEG-4 ~ 1182 kbps avg, 0.175 bit/pixel, build 73 Аудио: 48 kHz, AC3 Dolby Digital, 3/2 (L,C,R,l,r) + LFE ch, ~ 384 kbps | RUS |
[+] MediaInfoОбщее Полное имя : D:TorrentsLa.chimera.2023.WEB-DLRip_от New-Team_by_JNS82La.chimera.2023.WEB-DLRip_от New-Team_by_JNS82.avi Формат : AVI Формат/Информация : Audio Video Interleave Размер файла : 1,46 Гбайт Продолжительность : 2 ч. 12 м. Общий поток : 1 576 Кбит/сек Программа кодирования : VirtualDubMod 1.5.10.2 (build 2540/release) Библиотека кодирования : VirtualDubMod build 2540/release Видео Идентификатор : 0 Формат : MPEG-4 Visual Профиль формата : Advanced Simple@L5 Настройки формата : BVOP1 / Custom Matrix Параметр BVOP формата : 1 Параметр QPel формата : Нет Параметр GMC формата : Без точки перехода Параметр матрицы формата : Выборочная Идентификатор кодека : XVID Идентификатор кодека/Подсказка : XviD Продолжительность : 2 ч. 12 м. Битрейт : 1 182 Кбит/сек Ширина : 704 пикселя Высота : 400 пикселей Соотношение сторон : 16:9 Частота кадров : 24,000 кадра/сек Цветовое пространство : YUV Субдискретизация насыщенности : 4:2:0 Битовая глубина : 8 бит Тип развёртки : Прогрессивная Метод сжатия : С потерями Бит/(Пиксели*Кадры) : 0.175 Размер потока : 1,10 Гбайт (75%) Библиотека кодирования : XviD 73 Аудио Идентификатор : 1 Формат : AC-3 Формат/Информация : Audio Coding 3 Коммерческое название : Dolby Digital Идентификатор кодека : 2000 Продолжительность : 2 ч. 12 м. Вид битрейта : Постоянный Битрейт : 384 Кбит/сек Каналы : 6 каналов Channel layout : L R C LFE Ls Rs Частота : 48,0 КГц Частота кадров : 31,250 кадров/сек (1536 SPF) Метод сжатия : С потерями Размер потока : 365 Мбайт (24%) Выравнивание : Разделение по промежуткам Продолжительность промежутка : 42 мс. (1,00 видеокадр) Время предзагрузки промежутка : 500 мс. Service kind : Complete Main

Всего файлов в раздаче: 3 
La.chimera.2023.WEB-DLRip_от New-Team_by_JNS82.avi1.46 GB
La.chimera.2023.WEB-DLRip_от New-Team_by_JNS82_forced_[rus].srt6.29 kB
La.chimera.2023.WEB-DLRip_от New-Team_by_JNS82_full_[rus].srt96.25 kB

Похожие раздачи по запросу - Химера
2024-05-08 magnet Химера / La chimera (2023) WEB-DL 1080p | P 5.66 GB ↑ 1 ↓ 1
2024-02-04 magnet Химера / Chimera / Kimaira [S01] (2021) WEB-DL 1080p от ExKinoRay | P 37.98 GB ↑ 0 ↓ 0

Комментарии


Зарегистрируйтесь чтобы добавить комментарий
Торрент клиент
byTorrent - программа для загрузки торрент-файлов.

Скачать byTorrent.exe (1,5 МБ)

Скачать byTorrent.zip (0,6 МБ)

Поддержи torrent.by
российских рублей
(300 российских рублей это 4$)

Обратная связь rss

End game ©