↑↓torrent.by
Поиск
Логин:  Регистрация
Пароль:

Годзилла: Минус один / Gojira -1.0 / Godzilla: Minus One (2023) BDRip 720p от DoMiNo & селезень | P2, L

download Скачать торрент-файл   magnet Магнитная ссылка Размер: 4.79 GB Добавлен: 2024-05-08 05:00
Пиры будут получены из сети DHT
Последний сидер был замечен вчера в 21:09
Информация о фильме Название: Годзилла: Минус один Оригинальное название: Gojira -1.0 / Godzilla: Minus One Год выпуска: 2023 Жанр: Фантастика, боевик, драма Режиссер: Такаси Ямадзаки / Takashi Yamazaki В ролях: Минами Хамабэ, Рюноскэ Камики, Сакура Андо, Кураносукэ Сасаки, Мунэтака Аоки, Юки Ямада, Хидэтака Ёсиока, Майкл Ариас, Юя Эндо, Кисукэ Иида О фильме: В последние дни Второй мировой камикадзе Коити Сикисима посадил самолёт на острове Одо, где располагалась ремонтная база императорской армии Японии. В тот же вечер на них напал невесть откуда взявшийся огромный ящер Годзилла — именно так называли его местные. Коити возвращается в разрушенный бомбардировками Токио (родители погибли, от дома остались одни обломки) и пытается жить дальше. К нему прибивается тоже потерявшая семью девушка с младенцем, которого она спасла во время воздушного налёта. Время идёт, жизнь налаживается, Коити работает сборщиком мин в Токийском заливе, и однажды их хлипкий деревянный катер сталкивается с Годзиллой, который после ядерных испытаний на атолле Бикини стал ещё больше и ещё свирепее. Выпущено: Япония / Robot Communications, Toho Company, Toho Studios Продолжительность: 02:04:38 Перевод 1: Любительский (многоголосый, закадровый) | GoLTFilm Перевод 2: Профессиональный (двухголосый, закадровый) | ViruseProject Субтитры: Русские (Full (от rusubmaker)), английские, японские Файл Формат: Matroska Качество: BDRip 720p Видео: 1280x536 at 23.976 fps, x264@L4.1, ~3840 kbps Аудио 1: AC3, 6 ch, ~640 kbps - | Русский | | GoLTFilm Аудио 2: AC3, 2 ch, ~384 kbps - | Русский | | ViruseProject Аудио 3: AC3, 6 ch, ~640 kbps - | Японский | Original Формат субтитров: softsub (SRT) ***Рип от: -=DoMiNo=- *** Дорожка №1 получена путём наложения выделенных голосов на центр декодированного оригинала. Работа со звуком - Andron1975 (DVT)
[+] M/Ix264 : frame I:1191 Avg QP:14.91 size: 78436 x264 : frame P:37346 Avg QP:15.09 size: 41695 x264 : frame B:140760 Avg QP:17.31 size: 13772 General Unique ID : 50456284249285303659878523713917376727 (0x25F586E112597FE61D4A2CED119958D7) Complete name : T:Godzilla.Minus.One.2023.BDRip.720p.x264.seleZen.mkv Format : Matroska Format version : Version 4 File size : 4.79 GiB Duration : 2 h 4 min Overall bit rate : 5 499 kb/s Frame rate : 23.976 FPS Movie name : Godzilla.Minus.One.2023.BDRip.720p.x264.seleZen Encoded date : 2024-05-07 09:29:44 UTC Writing application : mkvmerge v84.0 ('Sleeper') 64-bit Writing library : libebml v1.4.5 + libmatroska v1.7.1 Cover : Yes Attachments : cover.jpg / small_cover.jpg Video ID : 1 Format : AVC Format/Info : Advanced Video Codec Format profile : High@L4.1 Format settings : CABAC / 12 Ref Frames Format settings, CABAC : Yes Format settings, Reference : 12 frames Codec ID : V_MPEG4/ISO/AVC Duration : 2 h 4 min Bit rate : 3 840 kb/s Width : 1 280 pixels Height : 536 pixels Display aspect ratio : 2.39:1 Frame rate mode : Constant Frame rate : 23.976 (24000/1001) FPS Color space : YUV Chroma subsampling : 4:2:0 Bit depth : 8 bits Scan type : Progressive Bits/(Pixel*Frame) : 0.233 Stream size : 3.34 GiB (70%) Title : -=DoMiNo=- Writing library : x264 core 164 r3190 -DoMiNo Encoding settings : cabac=1 / ref=12 / deblock=1:-2:-2 / analyse=0x3:0x133 / me=umh / subme=10 / psy=1 / psy_rd=1.00:0.00 / mixed_ref=1 / me_range=32 / chroma_me=1 / trellis=2 / 8x8dct=1 / cqm=0 / deadzone=21,11 / fast_pskip=0 / chroma_qp_offset=-2 / threads=17 / lookahead_threads=4 / sliced_threads=0 / nr=0 / decimate=1 / interlaced=0 / bluray_compat=0 / constrained_intra=0 / bframes=12 / b_pyramid=2 / b_adapt=2 / b_bias=0 / direct=3 / weightb=1 / open_gop=0 / weightp=2 / keyint=240 / keyint_min=23 / scenecut=40 / intra_refresh=0 / rc_lookahead=60 / rc=crf / mbtree=0 / crf=16.0 / qcomp=0.60 / qpmin=0 / qpmax=69 / qpstep=4 / vbv_maxrate=50000 / vbv_bufsize=62500 / crf_max=0.0 / nal_hrd=none / filler=0 / ip_ratio=1.20 / pb_ratio=1.30 / aq=3:0.80 Language : English Default : Yes Forced : No Color range : Limited Color primaries : BT.709 Transfer characteristics : BT.709 Matrix coefficients : BT.709 Audio #1 ID : 2 Format : AC-3 Format/Info : Audio Coding 3 Commercial name : Dolby Digital Codec ID : A_AC3 Duration : 2 h 4 min Bit rate mode : Constant Bit rate : 640 kb/s Channel(s) : 6 channels Channel layout : L R C LFE Ls Rs Sampling rate : 48.0 kHz Frame rate : 31.250 FPS (1536 SPF) Compression mode : Lossy Stream size : 571 MiB (12%) Title : MVO -GoltFilm Language : Russian Service kind : Complete Main Default : Yes Forced : No Dialog Normalization : -31 dB cmixlev : -3.0 dB surmixlev : -3 dB dialnorm_Average : -31 dB dialnorm_Minimum : -31 dB dialnorm_Maximum : -31 dB Audio #2 ID : 3 Format : AC-3 Format/Info : Audio Coding 3 Commercial name : Dolby Digital Codec ID : A_AC3 Duration : 2 h 4 min Bit rate mode : Constant Bit rate : 384 kb/s Channel(s) : 2 channels Channel layout : L R Sampling rate : 48.0 kHz Frame rate : 31.250 FPS (1536 SPF) Compression mode : Lossy Stream size : 343 MiB (7%) Title : DVO -ViruseProject Language : Russian Service kind : Complete Main Default : No Forced : No Dialog Normalization : -31 dB dialnorm_Average : -31 dB dialnorm_Minimum : -31 dB dialnorm_Maximum : -31 dB Audio #3 ID : 4 Format : AC-3 Format/Info : Audio Coding 3 Commercial name : Dolby Digital Codec ID : A_AC3 Duration : 2 h 4 min Bit rate mode : Constant Bit rate : 640 kb/s Channel(s) : 6 channels Channel layout : L R C LFE Ls Rs Sampling rate : 48.0 kHz Frame rate : 31.250 FPS (1536 SPF) Compression mode : Lossy Stream size : 571 MiB (12%) Title : Original Language : Japanese Service kind : Complete Main Default : No Forced : No Dialog Normalization : -31 dB cmixlev : -4.5 dB surmixlev : -6 dB dialnorm_Average : -31 dB dialnorm_Minimum : -31 dB dialnorm_Maximum : -31 dB Text #1 ID : 5 Format : UTF-8 Codec ID : S_TEXT/UTF8 Codec ID/Info : UTF-8 Plain Text Duration : 1 h 58 min Bit rate : 66 b/s Frame rate : 0.160 FPS Count of elements : 1131 Stream size : 57.3 KiB (0%) Title : Full (rusubmaker) Language : Russian Default : No Forced : No Text #2 ID : 6 Format : UTF-8 Codec ID : S_TEXT/UTF8 Codec ID/Info : UTF-8 Plain Text Duration : 1 h 56 min Bit rate : 35 b/s Frame rate : 0.171 FPS Count of elements : 1196 Stream size : 30.5 KiB (0%) Language : English Default : No Forced : No Text #3 ID : 7 Format : UTF-8 Codec ID : S_TEXT/UTF8 Codec ID/Info : UTF-8 Plain Text Duration : 2 h 3 min Bit rate : 379 b/s Frame rate : 0.901 FPS Count of elements : 6668 Stream size : 343 KiB (0%) Language : Japanese Default : No Forced : No Menu 00:00:00.000 : en:01: Godzilla 00:13:21.509 : en:02: Akiko 00:20:07.665 : en:03: Dangerous Work 00:30:31.580 : en:04: Buy Time 00:44:53.566 : en:05: The Person Who Ran Away 00:52:28.020 : en:06: Landing in Ginza 01:05:42.272 : en:07: Operation Wadatsumi 01:14:52.279 : en:08: My War 01:17:59.717 : en:09: Phantom Fighter 01:25:42.012 : en:10: For the Future 01:36:21.025 : en:11: Start of Operation 01:58:58.798 : en:12: End Credits
Релиз: Присоединяйся к: Кликай на баннеры.

Всего файлов в раздаче: 1 
Godzilla.Minus.One.2023.BDRip.720p.x264.seleZen.mkv4.79 GB

Похожие раздачи по запросу - Годзилла
2024-05-19 magnet Годзилла: Минус один / Gojira -1.0 / Godzilla: Minus One (2023) UHD BDRemux 2160p | 4K | HDR10 | Dolby Vision Profile 7 | P, P2, L 87.71 GB ↑ 0 ↓ 0
2024-05-19 magnet Годзилла и Конг: Новая империя / Godzilla x Kong: The New Empire (2024) UHD WEB-DL-HEVC 2160p | 4K | Dolby Vision TV | D, P 21.05 GB ↑ 0 ↓ 3
2024-05-18 magnet Годзилла и Конг: Новая империя / Ґодзілла та Конґ: Нова імперія / Godzilla x Kong: The New Empire (2024) WEB-DL-HEVC 2160p | 4K | SDR | D | UKR 12.70 GB ↑ 0 ↓ 1
2024-05-18 magnet Годзилла и Конг: Новая империя / Godzilla x Kong: The New Empire (2024) UHD WEB-DL-HEVC 2160p | 4K | HDR | Dolby Vision Profile 8 | D, P 21.08 GB ↑ 1 ↓ 7
2024-05-16 magnet Годзилла и Конг: Новая империя / Ґодзілла та Конґ: Нова імперія / Godzilla x Kong: The New Empire (2024) WEB-DL-HEVC 2160p | 4K | HDR | D | UKR 16.69 GB ↑ 0 ↓ 1
2024-05-16 magnet Годзилла и Конг: Новая империя / Godzilla x Kong: The New Empire (2024) WEB-DL 1080p от Jaskier | P 8.11 GB ↑ 1 ↓ 2
2024-05-16 magnet Годзилла и Конг: Новая империя / Ґодзілла та Конґ: Нова імперія / Godzilla x Kong: The New Empire (2024) WEB-DL 1080p | D | UKR 8.47 GB ↑ 0 ↓ 0

Комментарии


Зарегистрируйтесь чтобы добавить комментарий
Торрент клиент
byTorrent - программа для загрузки торрент-файлов.

Скачать byTorrent.exe (1,5 МБ)

Скачать byTorrent.zip (0,6 МБ)

Поддержи torrent.by
российских рублей
(300 российских рублей это 4$)

Обратная связь rss

End game ©