↑↓torrent.by
Поиск
Логин:  Регистрация
Пароль:

Падение дома Ашеров / The Fall of the House of Usher [S01] (2023) UHD WEB-DL-HEVC 2160p | 4K | HDR10+ | P

download Скачать торрент-файл   magnet Магнитная ссылка Размер: 70.32 GB Добавлен: 2024-05-08 11:00
Пиры будут получены из сети DHT
Последний сидер был замечен 2024-05-08 11:00
Название: Падение дома Ашеров Оригинальное название: The Fall of the House of Usher Год выхода: 2023 Производство: США / Intrepid Pictures, Netflix Жанр: Драма, ужасы Перевод: Профессиональный многоголосый Продолжительность: 08х ~00:57:00 Режиссёры: Майкл Фимоньяри, Майк Флэнаган В ролях: Брюс Гринвуд, Катрин Паркер, Уилла Фицджералд, Кейт Сигел, Карла Гуджино, Саманта Слойан, Кайли Кёрран, Генри Томас, Зак Гилфорд, Мэтт Бидел, Карл Ламбли, Т’Ниа Миллер, Майкл Трукко, Мэри МакДоннелл, Рахул Коли, Марк Хэмилл, Сориян Сапкота Описание: Неприлично богатый миллиардер Родерик Ашер приглашает к себе своего вечного антагониста, помощника прокурора Огюста Дюпена. Он давно пытается разоблачить коррумпированную семью Ашер, возглавляющую гиганта фармацевтической индустрии, компанию Fortunato. Клан настолько разбогател на производстве вызывающих привыкание опиоидов, что многочисленные дети Родерика от разных браков могут прожигать жизни, не переживая за своё будущее. Этим они и занимаются, пока в очередном судебном слушании против их корпорации не выясняется, что среди них есть сотрудничающий со следствием информатор. Разгневанные вероломным предательством Родерик и его сестра Мэделин затевают хитроумную игру, чтобы вывести крота на чистую воду. Вот только они не успевают учинить свою расправу - все дети Ашера гибнут при загадочных обстоятельствах в страшных муках в течении нескольких недель. Общественность шокирована трагедией, даже Дюпен готов взять паузу в вечной охоте за Ашерами, и только сами Родерик и Мэделин знают, кто пришел по их душу и за какие ужасные грехи прошлого расплачивается всё семейство… Формат: MKV Качество: WEB-DL 2160p Видео: MPEG-H HEVC / ~19.1 Мбит/с / 3840x2160 / 0.096 бит/(Пиксели*Кадры) / 24.000fps Аудио 01: АС-3, 6 ch, 384 kbps | Русский, MVO | TVShows | Аудио 02: АС-3, 2 ch, 384 kbps | Русский, MVO | LostFilm | Аудио 03: АС-3, 2 ch, 384 kbps | Русский, MVO | Red Head Sound | Аудио 04: E-AC-3 JOC, 6 ch, 768 kbps | Original | Субтитры: Русские (Forced, Full), английские (Full, SDH)
[+] MediainfoGeneral Unique ID : 136634780184336380947723180161758120537 (0x66CAE6C6181FA7BB10410D7A469FCA59) Complete name : E:Download/The Fall of the House of Usher (2023) S01.WEB-DL 2160p.HDR/S01E01 - A Midnight Dreary.mkv Format : Matroska Format version : Version 4 File size : 8.31 GiB Duration : 56 min 43 s Overall bit rate : 21.0 Mb/s Frame rate : 24.000 FPS Movie name : S01E01 - A Midnight Dreary Encoded date : 2024-05-07 08:20:42 UTC Writing application : mkvmerge v68.0.0 ('The Curtain') 64-bit Writing library : libebml v1.4.2 + libmatroska v1.6.4 Cover : Yes Attachments : Cover.jpg Video ID : 1 Format : HEVC Format/Info : High Efficiency Video Coding Format profile : Main 10@L5@Main HDR format : SMPTE ST 2086, HDR10 compatible Codec ID : V_MPEGH/ISO/HEVC Duration : 56 min 43 s Bit rate : 19.1 Mb/s Width : 3 840 pixels Height : 2 160 pixels Display aspect ratio : 16:9 Frame rate mode : Constant Frame rate : 24.000 FPS Color space : YUV Chroma subsampling : 4:2:0 (Type 2) Bit depth : 10 bits Bits/(Pixel*Frame) : 0.096 Stream size : 7.57 GiB (91%) Title : A Midnight Dreary Language : English Default : Yes Forced : No Color range : Limited Color primaries : BT.2020 Transfer characteristics : PQ Matrix coefficients : BT.2020 non-constant Mastering display color primar : Display P3 Mastering display luminance : min: 0.0001 cd/m2, max: 1000 cd/m2 Maximum Content Light Level : 775 cd/m2 Maximum Frame-Average Light Le : 165 cd/m2 Audio #1 ID : 2 Format : AC-3 Format/Info : Audio Coding 3 Commercial name : Dolby Digital Codec ID : A_AC3 Duration : 54 min 58 s Bit rate mode : Constant Bit rate : 384 kb/s Channel(s) : 6 channels Channel layout : L R C LFE Ls Rs Sampling rate : 48.0 kHz Frame rate : 31.250 FPS (1536 SPF) Compression mode : Lossy Stream size : 151 MiB (2%) Title : MVO - TVShows Language : Russian Service kind : Complete Main Default : Yes Forced : No AC3_metadata cmixlev : -4.5 dB surmixlev : -6 dB Audio #2 ID : 3 Format : AC-3 Format/Info : Audio Coding 3 Commercial name : Dolby Digital Codec ID : A_AC3 Duration : 56 min 43 s Bit rate mode : Constant Bit rate : 384 kb/s Channel(s) : 2 channels Channel layout : L R Sampling rate : 48.0 kHz Frame rate : 31.250 FPS (1536 SPF) Compression mode : Lossy Stream size : 156 MiB (2%) Title : MVO - LostFilm Language : Russian Service kind : Complete Main Default : No Forced : No Audio #3 ID : 4 Format : AC-3 Format/Info : Audio Coding 3 Commercial name : Dolby Digital Codec ID : A_AC3 Duration : 56 min 43 s Bit rate mode : Constant Bit rate : 384 kb/s Channel(s) : 2 channels Channel layout : L R Sampling rate : 48.0 kHz Frame rate : 31.250 FPS (1536 SPF) Compression mode : Lossy Stream size : 156 MiB (2%) Title : MVO - Red Head Sound Language : Russian Service kind : Complete Main Default : No Forced : No Audio #4 ID : 5 Format : E-AC-3 JOC Format/Info : Enhanced AC-3 with Joint Object Coding Commercial name : Dolby Digital Plus with Dolby Atmos Codec ID : A_EAC3 Duration : 54 min 59 s Bit rate mode : Constant Bit rate : 768 kb/s Channel(s) : 6 channels Channel layout : L R C LFE Ls Rs Sampling rate : 48.0 kHz Frame rate : 31.250 FPS (1536 SPF) Compression mode : Lossy Stream size : 302 MiB (4%) Title : Original Language : English Service kind : Complete Main Default : No Forced : No Complexity index : 16 Number of dynamic objects : 15 Bed channel count : 1 channel Bed channel configuration : LFE Text #1 ID : 6 Format : UTF-8 Codec ID : S_TEXT/UTF8 Codec ID/Info : UTF-8 Plain Text Duration : 52 min 38 s Bit rate : 2 b/s Frame rate : 0.006 FPS Count of elements : 20 Stream size : 889 Bytes (0%) Title : Forced Language : Russian Default : Yes Forced : No Text #2 ID : 7 Format : UTF-8 Codec ID : S_TEXT/UTF8 Codec ID/Info : UTF-8 Plain Text Duration : 54 min 27 s Bit rate : 121 b/s Frame rate : 0.247 FPS Count of elements : 806 Stream size : 48.3 KiB (0%) Title : Full Language : Russian Default : No Forced : No Text #3 ID : 8 Format : UTF-8 Codec ID : S_TEXT/UTF8 Codec ID/Info : UTF-8 Plain Text Duration : 52 min 30 s Bit rate : 82 b/s Frame rate : 0.257 FPS Count of elements : 811 Stream size : 31.8 KiB (0%) Title : Full Language : English Default : No Forced : No Text #4 ID : 9 Format : UTF-8 Codec ID : S_TEXT/UTF8 Codec ID/Info : UTF-8 Plain Text Duration : 52 min 37 s Bit rate : 86 b/s Frame rate : 0.276 FPS Count of elements : 872 Stream size : 33.4 KiB (0%) Title : SDH Language : English Default : No Forced : No
[+] Скриншоты

Всего файлов в раздаче: 8 
S01E01 - A Midnight Dreary.mkv8.31 GB
S01E02 - The Masque of the Red Death.mkv8.60 GB
S01E03 - Murder in the Rue Morgue.mkv8.71 GB
S01E04 - The Black Cat.mkv9.02 GB
S01E05 - The Tell-Tale Heart.mkv8.82 GB
S01E06 - Goldbug.mkv7.72 GB
S01E07 - The Pit and the Pendulum.mkv8.29 GB
S01E08 - The Raven.mkv10.85 GB

Похожие раздачи по запросу - Падение
2024-05-11 magnet Падение империи / Civil War (2024) TS-AVC | D | TS 2.01 GB ↑ 0 ↓ 4
2024-05-02 magnet Дмитрий Распопов - Венецианский купец 6. Падение Твердыни (2023) MP3 285.28 MB ↑ 0 ↓ 0
2024-04-25 magnet Время преступления: Свободное падение / CrimeTime: Freefall (2024) WEB-DL 1080p | ViruseProject 4.93 GB ↑ 0 ↓ 0
2024-04-24 magnet Время преступления: Свободное падение / CrimeTime: Freefall (2024) WEB-DLRip 720p от DoMiNo & селезень | P2 | ViruseProject 1.88 GB ↑ 0 ↓ 0
2024-04-24 magnet Время преступления: Свободное падение / CrimeTime: Freefall (2024) WEB-DLRip от New-Team | P2 | ViruseProject 1.46 GB ↑ 0 ↓ 0
2024-04-22 magnet Время преступления: Свободное падение / CrimeTime: Freefall (2024) WEB-DLRip от New-Team | P2 | ViruseProject 1.46 GB ↑ 0 ↓ 0
2024-04-22 magnet Время преступления: Свободное падение / CrimeTime: Freefall (2024) WEB-DL 1080p | ViruseProject 4.93 GB ↑ 0 ↓ 0

Кто качает (только для создателя раздачи и модераторов): Локальные пиры отсутствуют

Комментарии


Зарегистрируйтесь чтобы добавить комментарий
Торрент клиент
byTorrent - программа для загрузки торрент-файлов.

Скачать byTorrent.exe (1,5 МБ)

Скачать byTorrent.zip (0,6 МБ)

Поддержи torrent.by
российских рублей
(300 российских рублей это 4$)

Обратная связь rss

End game ©