↑↓torrent.by
Поиск
Логин:  Регистрация
Пароль:

Монстр / Il Mostro (1994) BDRip-AVC от ExKinoRay | P

download Скачать торрент-файл   magnet Магнитная ссылка Размер: 1.08 GB Добавлен: 2024-05-08 11:00
Пиры будут получены из сети DHT
Последний сидер был замечен 2024-05-08 11:00
Информация о фильме Название: Монстр / Секс-террорист Оригинальное название: Il mostro / The Monster Год выхода: 1994 Жанр: Комедия, криминал, детектив Режиссер: Роберто Бениньи В ролях: Роберто Бениньи, Мишель Блан, Николетта Браски, Доминик Лаванан, Жан-Клод Бриали, Лорен Шпильфогель, Ивано Марескотти, Франко Месколини, Массимо Джиротти, Лучана Пьери Паломби, Витторио Амандола, Рита Ди Лерниа, Дженнаро Морроне, Энцо Витальяно, Флавио де Флавис О фильме: Лорис ведет свою тихую жизнь мелкого мошенника и вечного должника, скрывающегося от своих кредиторов. В то же время полиция безуспешно пытается выйти на след монстра, насилующего женщин. Лорис, скрываясь от своих кредиторов, прячется за стенами домов, в страхе перебегает дорогу в самых неподходящих и опасных для этого местах. И все это заставляет полицию полагать, что именно он и есть этот разыскиваемый монстр — секс-террорист. Чтобы поймать Лориса с поличным, полиция подсылает к нему свою сексапильную сотрудницу. Она начинает провоцировать Лориса, флиртуя с ним самым безобразным образом. Но клюнет ли подозреваемый на эту привлекательную наживку? Страна: Италия, Франция Студия: IRIS Films, La Sept Cinéma, Melampo Cinematografica, Union Générale Cinématographique (UGC) Продолжительность: 01:58:22 Перевод: Профессиональный (многоголосый, закадровый) Файл Формат: MKV Качество: BDRip-AVC Видео: MPEG-4 AVC, 664x400, 1225 Кбит/с Аудио: AAC-HE, 2 ch, 76 Кбит/с Субтитры: Нет
[+] MIОбщее Уникальный идентификатор : 159245190553606878039468315110769020325 (0x77CD8212C1602755A228398E7B51CDA5) Полное имя : D:MOVIESMonstr.1994.BDRip-AVC.ExKinoRay.mkv Формат : Matroska Версия формата : Version 4 Размер файла : 1,08 Гбайт Продолжительность : 1 ч. 58 м. Общий поток : 1 301 Кбит/сек Дата кодирования : UTC 2020-09-08 11:26:31 Программа кодирования : mkvmerge v45.0.0 ('Heaven in Pennies') 64-bit Библиотека кодирования : libebml v1.3.10 + libmatroska v1.5.2 Видео Идентификатор : 1 Формат : AVC Формат/Информация : Advanced Video Codec Профиль формата : High@L4.1 Настройки формата : CABAC / 12 Ref Frames Параметр CABAC формата : Да Параметр RefFrames формата : 12 кадров Идентификатор кодека : V_MPEG4/ISO/AVC Продолжительность : 1 ч. 58 м. Битрейт : 1 225 Кбит/сек Ширина : 664 пикселя Высота : 400 пикселей Соотношение сторон : 5:3 Режим частоты кадров : Постоянный Частота кадров : 23,976 (24000/1001) кадра/сек Цветовое пространство : YUV Субдискретизация насыщенности : 4:2:0 Битовая глубина : 8 бит Тип развёртки : Прогрессивная Бит/(Пиксели*Кадры) : 0.192 Размер потока : 1,01 Гбайт (94%) Библиотека кодирования : x264 core 160 r3000 33f9e14 Настройки программы : cabac=1 / ref=12 / deblock=1:-2:-2 / analyse=0x3:0x133 / me=umh / subme=10 / psy=1 / psy_rd=1.05:0.12 / mixed_ref=1 / me_range=32 / chroma_me=1 / trellis=2 / 8x8dct=1 / cqm=0 / deadzone=21,11 / fast_pskip=0 / chroma_qp_offset=-3 / threads=6 / lookahead_threads=1 / sliced_threads=0 / nr=0 / decimate=0 / interlaced=0 / bluray_compat=0 / constrained_intra=0 / bframes=11 / b_pyramid=2 / b_adapt=2 / b_bias=0 / direct=3 / weightb=1 / open_gop=0 / weightp=2 / keyint=240 / keyint_min=23 / scenecut=40 / intra_refresh=0 / rc=2pass / mbtree=0 / bitrate=1225 / ratetol=1.0 / qcomp=0.60 / qpmin=0 / qpmax=69 / qpstep=4 / cplxblur=20.0 / qblur=0.5 / ip_ratio=1.40 / pb_ratio=1.30 / aq=3:1.00 Default : Да Forced : Нет Цветовой диапазон : Limited Основные цвета : BT.709 Характеристики трансфера : BT.709 Коэффициенты матрицы : BT.709 Аудио Идентификатор : 2 Формат : AAC LC SBR Формат/Информация : Advanced Audio Codec Low Complexity with Spectral Band Replication Коммерческое название : HE-AAC Настройки формата : Explicit Идентификатор кодека : A_AAC-2 Продолжительность : 1 ч. 58 м. Битрейт : 76,0 Кбит/сек Каналы : 2 канала Channel layout : L R Частота : 48,0 КГц Частота кадров : 23,438 кадра/сек (2048 SPF) Метод сжатия : С потерями Задержка видео : 31 мс. Размер потока : 64,4 Мбайт (6%) Язык : Russian Default : Да Forced : Нет
[+] Скриншоты

Всего файлов в раздаче: 1 
Monstr.1994.BDRip-AVC.ExKinoRay.mkv1.08 GB

Похожие раздачи по запросу - Монстр
2024-05-02 magnet Перерождение: Монстр / Re:Monster [01x01-05 из 12] (2024) WEBRip 1080p by VLDeshka | L | DreamCast 2.79 GB ↑ 0 ↓ 0
2024-04-18 magnet Перерождение: Монстр / Re:Monster [01x01-03 из 12] (2024) WEBRip 1080p by VLDeshka | L | DreamCast 1.67 GB ↑ 0 ↓ 0
2024-04-06 magnet Монстр / Monster / Kaibutsu (2023) BDRip 1080p | A 13.98 GB ↑ 0 ↓ 0

Комментарии


Зарегистрируйтесь чтобы добавить комментарий
Торрент клиент
byTorrent - программа для загрузки торрент-файлов.

Скачать byTorrent.exe (1,5 МБ)

Скачать byTorrent.zip (0,6 МБ)

Поддержи torrent.by
российских рублей
(300 российских рублей это 4$)

Обратная связь rss

End game ©