↑↓torrent.by
Поиск
Логин:  Регистрация
Пароль:

По законам военного времени: Враг за спиной [07x01-07 из 08] (2024) WEB-DLRip-AVC от ExKinoRay

download Скачать торрент-файл   magnet Магнитная ссылка Размер: 3.98 GB Добавлен: 2024-05-08 11:00
Пиры будут получены из сети DHT
Последний сидер был замечен 2024-05-15 05:26
Информация о фильме Название: По законам военного времени Год выхода: 2024 Жанр: Военный, драма, исторический, криминал Режиссер: Дмитрий Петрунь В ролях: Екатерина Климова, Александр Панкратов-Чёрный, Дмитрий Лавров, Павел Южаков-Харланчук, Кирилл Чернышенко, Арина Постникова, Александр Ревенко, Станислав Соломатин, Виталий Евдокимов, Янина Исаичкина, Максим Пушненков О фильме: Приквел 4 сезона. Осень 1944 года. Территория освобожденной Литвы. Майор Елагина и старшина Федоренко едут за новым назначением в штаб Фронта. По пути на них нападают вооруженные люди. С трудом им удается добраться до ближайшего села, где расположился особый сводный батальон Красной Армии, которым командует старый друг Елагиной — подполковник Шилов. Он рассказывает, что напали на Елагину местные партизаны — так называемые «лесные братья», которые вместе с немецкими и литовскими диверсантами организовали на освобожденной территории вражеское подполье. Борьба с ними поручена Шилову, и он предлагает Елагиной присоединиться к его городской следственной группе. Майор Елагина и Федоренко остаются вместе с Шиловым. Он особо полагается на опыт майора в следственном деле и поручает ей решать самые трудные задачи в расследованиях. При этом по-дружески защищает и опекает ее от всего, что может помешать будущей встрече Елагиной с мужем и их общей Победе. Страна: Россия Студия: Star Media Продолжительность: 7 х ~ 00:51:00 Язык: Русский Формат: MKV Качество: WEB-DLRip-AVC Видео: MPEG-4 AVC, 720x404, 25.000 fps, 1400 Kbps, 0.193 bit/pixel Аудио : 48 kHz, AC3, 2/0 ch, ~192.00 kbps avg RUS Субтитры: Русские (Full)
[+] МИGeneral Unique ID : 254262993628155852044033282546260694625 (0xBF494575155887C18E767CBE37C6D661) Complete name : D:Po.zakonam.voennogo.vremeni.S07.2024.WEB-DLRip.AVC.ExKinoRayPo.zakonam.voennogo.vremeni.S07.E01.2024.WEB-DLRip.AVC.ExKinoRay.mkv Format : Matroska Format version : Version 2 File size : 583 MiB Duration : 51 min Overall bit rate : 1 593 kb/s Movie name : По законам военного времени. Враг за спиной 01 (2024) from ExKinoRay Encoded date : UTC 2024-05-03 01:14:04 Writing application : mkvmerge v5.6.0 ('Kenya Kane') built on May 27 2012 16:44:04 Writing library : libebml v1.2.3 + libmatroska v1.3.0 Video ID : 1 Format : AVC Format/Info : Advanced Video Codec Format profile : High@L4.1 Format settings, CABAC : Yes Format settings, ReFrames : 10 frames Codec ID : V_MPEG4/ISO/AVC Duration : 51 min Bit rate : 1 400 kb/s Width : 720 pixels Height : 404 pixels Display aspect ratio : 16:9 Frame rate mode : Constant Frame rate : 25.000 FPS Color space : YUV Chroma subsampling : 4:2:0 Bit depth : 8 bits Scan type : Progressive Bits/(Pixel*Frame) : 0.193 Stream size : 501 MiB (86%) Writing library : x264 core 164 r3107+58M ae98796 t_mod_New Encoding settings : cabac=1 / ref=10 / deblock=1:-2:-2 / analyse=0x3:0x133 / me=umh / subme=10 / psy=1 / fade_compensate=0.00 / psy_rd=1.00:0.00 / mixed_ref=1 / me_range=32 / chroma_me=1 / trellis=2 / 8x8dct=1 / cqm=0 / deadzone=21,11 / fast_pskip=0 / chroma_qp_offset=-2 / threads=12 / lookahead_threads=3 / sliced_threads=0 / nr=0 / decimate=0 / interlaced=0 / bluray_compat=0 / constrained_intra=0 / fgo=0 / bframes=10 / b_pyramid=2 / b_adapt=2 / b_bias=0 / direct=3 / weightb=1 / open_gop=0 / weightp=2 / keyint=250 / keyint_min=25 / scenecut=40 / intra_refresh=0 / rc=2pass / mbtree=0 / bitrate=1400 / ratetol=1.0 / qcomp=0.60 / qpmin=0:0:0 / qpmax=69:69:69 / qpstep=4 / cplxblur=20.0 / qblur=0.5 / ip_ratio=1.40 / pb_ratio=1.30 / aq=1:1.00 / aq-sensitivity=10.00 / aq-factor=1.00:1.00:1.00 / aq2=0 / aq3=0 Default : Yes Forced : No Audio ID : 2 Format : AC-3 Format/Info : Audio Coding 3 Mode extension : CM (complete main) Format settings, Endianness : Big Codec ID : A_AC3 Duration : 51 min Bit rate mode : Constant Bit rate : 192 kb/s Channel(s) : 2 channels Channel positions : Front: L R Sampling rate : 48.0 kHz Frame rate : 31.250 FPS (1536 spf) Compression mode : Lossy Stream size : 70.2 MiB (12%) Language : Russian Default : Yes Forced : No Text ID : 3 Format : UTF-8 Codec ID : S_TEXT/UTF8 Codec ID/Info : UTF-8 Plain Text Title : Full Language : Russian Default : No Forced : No
Релиз от: Автор релиза:

Всего файлов в раздаче: 7 
Po.zakonam.voennogo.vremeni.S07.E01.2024.WEB-DLRip.AVC.ExKinoRay.mkv582.74 MB
Po.zakonam.voennogo.vremeni.S07.E02.2024.WEB-DLRip.AVC.ExKinoRay.mkv561.32 MB
Po.zakonam.voennogo.vremeni.S07.E03.2024.WEB-DLRip.AVC.ExKinoRay.mkv585.64 MB
Po.zakonam.voennogo.vremeni.S07.E04.2024.WEB-DLRip.AVC.ExKinoRay.mkv585.60 MB
Po.zakonam.voennogo.vremeni.S07.E05.2024.WEB-DLRip.AVC.ExKinoRay.mkv586.46 MB
Po.zakonam.voennogo.vremeni.S07.E06.2024.WEB-DLRip.AVC.ExKinoRay.mkv580.70 MB
Po.zakonam.voennogo.vremeni.S07.E07.2024.WEB-DLRip.AVC.ExKinoRay.mkv595.26 MB

Похожие раздачи по запросу - законам
2024-05-15 magnet По законам военного времени. Враг за спиной [S07] (2024) WEB-DLRip от Generalfilm | КПК 1.52 GB ↑ 0 ↓ 0
2024-05-14 magnet По законам военного времени. Враг за спиной [S07] (2024) WEB-DLRip-AVC от GeneralFilm | КПК 1.81 GB ↑ 0 ↓ 0
2024-05-10 magnet По законам военного времени [S01-07] (2015-2024) WEB-DLRip, WEBRip 41.01 GB ↑ 0 ↓ 0
2024-05-10 magnet По законам военного времени. Враг за спиной [S07] (2024) WEB-DLRip от Files-x 5.07 GB ↑ 1 ↓ 0
2024-05-09 magnet По законам военного времени: Враг за спиной [S07] (2024) WEB-DL 720p от ExKinoRay 8.04 GB ↑ 0 ↓ 0
2024-05-09 magnet По законам военного времени. Враг за спиной [S07] (2024) WEB-DLRip-AVC от Files-x 5.11 GB ↑ 0 ↓ 0
2024-05-09 magnet По законам военного времени: Враг за спиной [S07] (2024) WEB-DLRip-AVC от ExKinoRay 4.54 GB ↑ 0 ↓ 0

Кто качает (только для создателя раздачи и модераторов): Локальные пиры отсутствуют

Комментарии


Зарегистрируйтесь чтобы добавить комментарий
Торрент клиент
byTorrent - программа для загрузки торрент-файлов.

Скачать byTorrent.exe (1,5 МБ)

Скачать byTorrent.zip (0,6 МБ)

Поддержи torrent.by
российских рублей
(300 российских рублей это 4$)

Обратная связь rss

End game ©